当前位置: 首页 >> 欧美电影 >> 碧海追踪[简繁字幕].Into.the.Blue.2005.BluRay.1080p.DTS-HD.MA5.1.x265.10bit-btbt9527.com 11.13GB >> 正文

碧海追踪[简繁字幕].Into.the.Blue.2005.BluRay.1080p.DTS-HD.MA5.1.x265.10bit-btbt9527.com 11.13GB

2021年12月09日 10:59:18     电影发布:来源于网络     电影分类:欧美电影     评论(0)    

碧海追踪[简繁字幕].Into.the.Blue.2005.BluRay.1080p.DTS HD.MA5.1.x265.10bit btbt9527.com 11.13GB 爱情片 犯罪片 惊悚片 动作片 欧美电影  第1张

◎译 名 碧海追踪 / 深海寻宝

◎片 名 Into the Blue

◎年 代 2005

◎产 地 美国

◎类 别 动作 / 惊悚 / 犯罪 / 冒险

◎语 言 英语

◎上映日期 2005-09-30(美国)

◎IMDb链接 https://www.imdb.com/title/tt0378109/

◎豆瓣评分 6.7/10 (7945人评价)

◎豆瓣链接 https://movie.douban.com/subject/1410557/

◎片 长 110 分钟

◎导 演 约翰·斯托克韦尔 John Stockwell (id:1000252)

◎演 员 杰西卡·阿尔芭 Jessica Alba (id:1004861)

保罗·沃克 Paul Walker (id:1031239)

艾什丽·斯科特 Ashley Scott (id:1010595)

斯科特·凯恩 Scott Caan (id:1049550)

乔什·布洛林 Josh Brolin (id:1004568)

Chris Taloa Chris Taloa (id:1166946)

詹姆斯·弗莱恩 James Frain (id:1031840)

泰森·贝克福德 Tyson Beckford (id:1036697)

德怀恩·阿德维 Dwayne Adway (id:1055481)

彼得·加伯 Peter Guber (id:1032640)

保罗·海斯林格 Paul Haslinger (id:1037358)

夏恩·赫尔博特 Shane Hurlbut (id:1005024)

丹尼斯·弗尔克勒 Dennis Virkler (id:1300109)

萨拉·芬兰 Sarah Finn (id:1283741)

兰迪·希勒 Randi Hiller (id:1286647)

Maia Javan Maia Javan (id:1287622)

戴维·F·克拉森 David F. Klassen (id:1288673)

Robin Day Robin Day (id:1281957)

比尔·博普 Bill Purple (id:1301850)

拉斯·P·温特 Lars P. Winther (id:1051237)

康拉德·E·帕尔米萨诺 Conrad E. Palmisano (id:1048392)

戴维·戈德史密斯 David Goldsmith (id:1167316)

Rob Meyers Rob Meyers (id:1212860)

David Stump David Stump (id:1276361)

胡安·卡洛斯·巴尔加斯 Juan Carlos Vargas (id:1038055)

丹尼·S·金 Danny S. Kim (id:1288541)

雷·麦金太尔 Ray McIntyre Jr. (id:1291625)

威廉·梅萨 William Mesa (id:1291905)

林肯·库普切克 Lincoln Kupchak (id:1013029)

潘卡杰·哈德波尔 Pankaj Khandpur (id:1303799)

◎标 签 美国 / 动作 / 冒险 / JessicaAlba / 海洋 / 潜水 / 美国电影 / 2005

◎简 介

风暴之夜,一架飞机在海上失事,坠入无边的大海深处……碧水蓝天的巴哈马海域上,失业潜水员杰拉德(保罗·沃克 Paul Walker 饰)和女友萨曼(杰西卡·阿尔芭 Jessica Alba 饰)预备寻宝深海的沉船宝藏,然而破旧的小船和竞争对手贝茨的打压让他们难以如愿,幸好律师好友布莱斯和女友阿曼达来到,于是四人出海,竟意外的发现了著名海盗的宝藏线索以及一架载满毒品的飞机。布莱斯与阿曼达打起了毒品的主意,但一心挖掘宝藏的杰拉德劝说好友远离毒品。不久,杰拉德陷入财政危机,布莱斯要杰拉德不顾萨曼的劝告以毒品获利支持发掘。而贝茨和毒枭的眼镜,也在暗中盯上了这几个寻宝的好友……

  1. ##### MediaInfo ######

  2. General

  3. Unique ID : 204847255957412555662609906322013233613 (0x9A1C257C44035D8A8D8428682B5521CD)

  4. Complete name : [email protected]VHome.mkv

  5. Format : Matroska

  6. Format version : Version 4

  7. File size : 11.1 GiB

  8. Duration : 1 h 50 min

  9. Overall bit rate mode : Variable

  10. Overall bit rate : 14.5 Mb/s

  11. Encoded date : UTC 2021-12-08 07:21:55

  12. Writing application : mkvmerge v49.0.0 ('Sick Of Losing Soulmates') 64-bit

  13. Writing library : libebml v1.4.0 + libmatroska v1.6.1


  14. Video

  15. ID : 1

  16. Format : HEVC

  17. Format/Info : High Efficiency Video Coding

  18. Format profile : Main [email protected]@High

  19. Codec ID : V_MPEGH/ISO/HEVC

  20. Duration : 1 h 50 min

  21. Bit rate : 10.4 Mb/s

  22. Width : 1 920 pixels

  23. Height : 808 pixels

  24. Display aspect ratio : 2.40:1

  25. Frame rate mode : Constant

  26. Frame rate : 24.000 FPS

  27. Color space : YUV

  28. Chroma subsampling : 4:2:0

  29. Bit depth : 10 bits

  30. Bits/(Pixel*Frame) : 0.278

  31. Stream size : 7.97 GiB (72%)

  32. Title : HEVC, [email protected]@High, 24 fps @ 10359 kbps

  33. Writing library : x265 3.4+14-gd419c7152:[Windows][GCC 10.2.0][64 bit] 10bit

  34. Encoding settings : cpuid=533541111039 / frame-threads=4 / numa-pools=16 / wpp / pmode / pme / no-psnr / no-ssim / log-level=2 / input-csp=1 / input-res=1920x808 / interlace=0 / total-frames=158691 / level-idc=51 / high-tier=1 / uhd-bd=0 / ref=5 / no-allow-non-conformance / no-repeat-headers / annexb / no-aud / no-hrd / info / hash=0 / no-temporal-layers / open-gop / min-keyint=24 / keyint=240 / gop-lookahead=0 / bframes=6 / b-adapt=2 / b-pyramid / bframe-bias=0 / rc-lookahead=40 / lookahead-slices=0 / NTMzNTQ=uuDQuD2mJt9fsCf / scenecut=40 / hist-scenecut=0 / radl=0 / no-splice / no-intra-refresh / ctu=32 / min-cu-size=8 / no-rect / no-amp / max-tu-size=32 / tu-inter-depth=3 / tu-intra-depth=3 / limit-tu=4 / rdoq-level=2 / dynamic-rd=0.00 / no-ssim-rd / signhide / no-tskip / nr-intra=0 / nr-inter=0 / no-constrained-intra / no-strong-intra-smoothing / max-merge=4 / limit-refs=1 / limit-modes / me=3 / subme=4 / merange=25 / temporal-mvp / no-frame-dup / no-hme / weightp / weightb / no-analyze-src-pics / deblock=-3:-3 / no-sao / no-sao-non-deblock / rd=6 / selective-sao=0 / no-early-skip / rskip / no-fast-intra / no-tskip-fast / no-cu-lossless / b-intra / no-splitrd-skip / rdpenalty=0 / psy-rd=2.00 / psy-rdoq=1.00 / no-rd-refine / no-lossless / cbqpoffs=0 / crqpoffs=0 / rc=crf / crf=19.5 / qcomp=0.65 / qpstep=4 / stats-write=0 / stats-read=0 / vbv-maxrate=80000 / vbv-bufsize=80000 / vbv-init=0.9 / crf-max=0.0 / crf-min=0.0 / ipratio=1.40 / pbratio=1.30 / aq-mode=2 / aq-strength=0.85 / cutree / zone-count=0 / no-strict-cbr / qg-size=32 / no-rc-grain / qpmax=69 / qpmin=0 / no-const-vbv / sar=1 / overscan=0 / videoformat=5 / range=0 / colorprim=1 / transfer=1 / colormatrix=1 / chromaloc=0 / display-window=0 / cll=0,0 / min-luma=0 / max-luma=1023 / log2-max-poc-lsb=8 / vui-timing-info / vui-hrd-info / slices=1 / no-opt-qp-pps / no-opt-ref-list-length-pps / no-multi-pass-opt-rps / scenecut-bias=0.05 / hist-threshold=0.03 / no-opt-cu-delta-qp / no-aq-motion / no-hdr10 / no-hdr10-opt / no-dhdr10-opt / no-idr-recovery-sei / analysis-reuse-level=0 / analysis-save-reuse-level=0 / analysis-load-reuse-level=0 / scale-factor=0 / refine-intra=0 / refine-inter=0 / refine-mv=1 / refine-ctu-distortion=0 / no-limit-sao / ctu-info=0 / no-lowpass-dct / refine-analysis-type=0 / copy-pic=1 / max-ausize-factor=1.0 / no-dynamic-refine / no-single-sei / no-hevc-aq / no-svt / no-field / qp-adaptation-range=1.00 / no-scenecut-aware-qpconformance-window-offsets / right=0 / bottom=0 / NTMzNTQ= / decoder-max-rate=0

  35. Language : English

  36. Default : Yes

  37. Forced : No

  38. Color range : Limited

  39. Color primaries : BT.709

  40. Transfer characteristics : BT.709

  41. Matrix coefficients : BT.709


  42. Audio #1

  43. ID : 2

  44. Format : DTS XLL

  45. Format/Info : Digital Theater Systems

  46. Commercial name : DTS-HD Master Audio

  47. Codec ID : A_DTS

  48. Duration : 1 h 50 min

  49. Bit rate mode : Variable

  50. Bit rate : 3 771 kb/s

  51. Channel(s) : 6 channels

  52. Channel layout : C L R Ls Rs LFE

  53. Sampling rate : 48.0 kHz

  54. Frame rate : 93.750 FPS (512 SPF)

  55. Bit depth : 24 bits

  56. Compression mode : Lossless

  57. Stream size : 2.90 GiB (26%)

  58. Title : English DTS-HD Master Audio 5.1 @ 3771 kbps

  59. Language : English

  60. Default : Yes

  61. Forced : No


  62. Audio #2

  63. ID : 3

  64. Format : AC-3

  65. Format/Info : Audio Coding 3

  66. Commercial name : Dolby Digital

  67. Codec ID : A_AC3

  68. Duration : 1 h 50 min

  69. Bit rate mode : Constant

  70. Bit rate : 192 kb/s

  71. Channel(s) : 2 channels

  72. Channel layout : L R

  73. Sampling rate : 48.0 kHz

  74. Frame rate : 31.250 FPS (1536 SPF)

  75. Compression mode : Lossy

  76. Stream size : 151 MiB (1%)

  77. Title : English Dolby Digital Audio 2.0 @ 192 kbps Commentary

  78. Language : English

  79. Service kind : Complete Main

  80. Default : No

  81. Forced : No


  82. Text #1

  83. ID : 4

  84. Format : PGS

  85. Codec ID : S_HDMV/PGS

  86. Codec ID/Info : Picture based subtitle format used on BDs/HD-DVDs

  87. Duration : 1 h 44 min

  88. Bit rate : 30.3 kb/s

  89. Count of elements : 2130

  90. Stream size : 22.6 MiB (0%)

  91. Title : Eng/SUP

  92. Language : English

  93. Default : No

  94. Forced : No


  95. Text #2

  96. ID : 5

  97. Format : PGS

  98. Codec ID : S_HDMV/PGS

  99. Codec ID/Info : Picture based subtitle format used on BDs/HD-DVDs

  100. Duration : 1 h 45 min

  101. Bit rate : 20.0 kb/s

  102. Count of elements : 2527

  103. Stream size : 15.1 MiB (0%)

  104. Title : Chs/SUP 简体

  105. Language : Chinese

  106. Default : Yes

  107. Forced : No


  108. Text #3

  109. ID : 6

  110. Format : PGS

  111. Codec ID : S_HDMV/PGS

  112. Codec ID/Info : Picture based subtitle format used on BDs/HD-DVDs

  113. Duration : 1 h 45 min

  114. Bit rate : 20.4 kb/s

  115. Count of elements : 2527

  116. Stream size : 15.4 MiB (0%)

  117. Title : Cht/SUP 繁体

  118. Language : Chinese

  119. Default : No

  120. Forced : No


  121. Text #4

  122. ID : 7

  123. Format : PGS

  124. Codec ID : S_HDMV/PGS

  125. Codec ID/Info : Picture based subtitle format used on BDs/HD-DVDs

  126. Duration : 1 h 45 min

  127. Bit rate : 36.4 kb/s

  128. Count of elements : 2527

  129. Stream size : 27.5 MiB (0%)

  130. Title : Chs/SUP 简英双语

  131. Language : Chinese

  132. Default : No

  133. Forced : No


  134. Text #5

  135. ID : 8

  136. Format : PGS

  137. Codec ID : S_HDMV/PGS

  138. Codec ID/Info : Picture based subtitle format used on BDs/HD-DVDs

  139. Duration : 1 h 45 min

  140. Bit rate : 34.7 kb/s

  141. Count of elements : 2527

  142. Stream size : 26.2 MiB (0%)

  143. Title : Cht/SUP 繁英双语

  144. Language : Chinese

  145. Default : No

  146. Forced : No


  147. Menu

  148. 00:00:00.000 : en:第 01 章

  149. 00:05:10.417 : en:第 02 章

  150. 00:09:57.000 : en:第 03 章

  151. 00:15:51.792 : en:第 04 章

  152. 00:21:34.750 : en:第 05 章

  153. 00:28:06.958 : en:第 06 章

  154. 00:34:35.792 : en:第 07 章

  155. 00:38:41.792 : en:第 08 章

  156. 00:46:11.792 : en:第 09 章

  157. 00:50:33.292 : en:第 10 章

  158. 00:58:16.958 : en:第 11 章

  159. 01:07:06.167 : en:第 12 章

  160. 01:15:13.750 : en:第 13 章

  161. 01:20:41.875 : en:第 14 章

  162. 01:30:27.417 : en:第 15 章

  163. 01:37:52.625 : en:第 16 章

  164. 01:43:21.958 : en:第 17 章

  165. 01:45:19.958 : en:第 18 章




复制代码



文件下载


除非特别注明,本文『碧海追踪[简繁字幕].Into.the.Blue.2005.BluRay.1080p.DTS-HD.MA5.1.x265.10bit-btbt9527.com 11.13GB』来源于互联网机器人自动抓取,非本站原创。 浮游电影网不对本文拥有版权,如有侵犯,请联系邮箱:fuyouu#yandex.com[#换成@]投诉。我们会在15个工作日内删除。 但烦请转载时请标明出处:“本文转载于『浮游电影网』,原文地址:https://www.fuyouu.com/19205.html

评论吧骚年!

发表你的见解   

昵称*

E-mail*(建议输入,以便收到博主回复的提示邮件)

验证码*

您可以使用eMule或eMule Mod(Windows)、aMule(Win、Linux、Mac)等软件下载eD2k链接。。
eMule收藏集(.emulecollection)文件是您选中的所有链接的列表文件。eMule可以直接下载它们。
按住SHIFT键选择可以选中多个选择框。
可用文件名和大小选择器来选择文件。
文件名选择器帮您根据文件名称或后缀来选择文件。不分大小写。
符号使用:
和:空格( )、+
不包含:-
或:|
转义:一对英文引号("");
匹配开头:^
匹配结尾:$
例如:
选中所有名称中包含有“eMule”或“0.49c”字眼,但不包含有“exe”字眼的:emule|0.49c -exe
选中所有名称的开头是“eMule”,结尾是“0.49c”的:^emule 0.49c$
选中所有名称中带有“eMule 0.49c”的(必须是“eMule 0.49c”,中间没有别的字符,不能是“eMule fake 0.49c”),需要转义:"emule 0.49c"
大小选择器帮您根据文件大小选择文件。