当前位置: 首页 >> 欧美电影 >> 王牌保镖2[简繁字幕].Hitmans.Wifes.Bodyguard.2021.Extended.Cut.BluRay.1080p.DTS-HD.MA.7.1.x265.10bit 10.49GB >> 正文

王牌保镖2[简繁字幕].Hitmans.Wifes.Bodyguard.2021.Extended.Cut.BluRay.1080p.DTS-HD.MA.7.1.x265.10bit 10.49GB

2021年12月09日 10:55:33     电影发布:来源于网络     电影分类:欧美电影     评论(0)    

王牌保镖2[简繁字幕].Hitmans.Wifes.Bodyguard.2021.Extended.Cut.BluRay.1080p.DTS HD.MA.7.1.x265.10bit 10.49GB 犯罪片 动作片 喜剧片 欧美电影  第1张

◎译 名 王牌保镖2 / 杀手妻子的保镖 / 保镖救杀手2(港) / The Hitman's Bodyguard 2

◎片 名 The Hitman's Wife's Bodyguard

◎年 代 2021

◎产 地 美国 / 英国

◎类 别 喜剧 / 动作 / 犯罪

◎语 言 英语

◎上映日期 2021-06-16(美国)

◎IMDb链接 https://www.imdb.com/title/tt8385148/

◎豆瓣评分 6.3/10 (20250人评价)

◎豆瓣链接 https://movie.douban.com/subject/30216729/

◎片 长 116分钟

◎导 演 帕特里克·休斯 Patrick Hughes (id:1328352)

◎编 剧 汤姆·奥康纳 Tom O'Connor (id:1335447)

布兰登·墨菲 Brandon Murphy (id:1458667)

菲利普·墨菲 Phillip Murphy (id:1458668)

◎演 员 瑞安·雷诺兹 Ryan Reynolds (id:1053623)

塞缪尔·杰克逊 Samuel L. Jackson (id:1054408)

萨尔玛·海耶克 Salma Hayek (id:1047986)

弗兰克·格里罗 Frank Grillo (id:1100321)

理查德·E·格兰特 Richard E. Grant (id:1048188)

安东尼奥·班德拉斯 Antonio Banderas (id:1022582)

摩根·弗里曼 Morgan Freeman (id:1054534)

斯图尔特·亚历山大 Stewart Alexander (id:1458669)

早乙女津和雪 Tsuwayuki Saotome (id:1458671)

丽贝卡·弗朗特 Rebecca Front (id:1010702)

诺杰·赫拉尔 Noortje Herlaar (id:1273893)

迈克尔·戈尔 Michael Gor (id:1458670)

乔治·格伦 Georgie Glen (id:1414886)

巴里·阿茨玛 Barry Atsma (id:1014500)

蒂内·朱斯特拉 Tine Joustra (id:1458672)

加里·奥德曼 Gary Oldman (id:1010507)

玛丽安娜·维基尔斯卡 Mariana Vekilska (id:1458673)

布莱恩·卡斯佩 Brian Caspe (id:1185866)

丹柯·约尔丹诺夫 Danko Jordanov (id:1190569)

西蒙·安德鲁 Simón Andreu (id:1058576)

塞尔吉奥·托里科 Sergio Torrico (id:1368363)

布莱克·瑞特森 Blake Ritson (id:1274371)

汤姆·霍珀 Tom Hopper (id:1315896)

加布里埃拉·赖特 Gabriella Wright (id:1352456)

卡罗琳·古多尔 Caroline Goodall (id:1041165)

爱丽丝·麦克米兰 Alice McMillan (id:1392191)

伊万·朱里奇 Ivan Djuricic (id:1238458)

米尔托斯·耶罗勒曼 Miltos Yerolemou (id:1434507)

帕特里克·休斯 Patrick Hughes (id:1328352)

德拉甘·米恰诺维奇 Dragan Mi?anovi? (id:1124740)

托米·梅 Tomi May (id:1361731)

乔纳斯·塔金顿 Jonas Talkington (id:1213443)

小恩佐·斯奎利诺 Enzo Squillino Jr. (id:1153606)

吉欧里奥·贝鲁蒂 Giulio Berruti (id:1214265)

鲁道夫·科萨托 Rodolfo Corsato (id:1281312)

卡蒙提普·克里希·阿什顿 Kamontip Krissy Ashton (id:1412747)

贝卡·宝陵 Bekka Bowling (id:1412748)

贝恩·科拉科 Bern Colla?o (id:1394212)

内森·库珀 Nathan Cooper (id:1383903)

罗杰·金 Roger King (id:1396422)

阿德南·昆迪 Adnan Kundi (id:1458085)

马雷克·里奇滕博格 Marek Lichtenberg (id:1449365)

希滕·珀泰尔 Hiten Patel (id:1392995)

佩特拉·武凯利奇 Petra Vukelic (id:1251269)

Harry Taurasi Harry Taurasi (id:1452066)

Amar Bukvic Amar Bukvic (id:1194514)

Csilla Barath-Bastaic Csilla Barath-Bastaic (id:1200086)

James Maclurcan James Maclurcan (id:1253936)

克里斯蒂娜·坎贝尔 Christa Campbell (id:1036612)

博兹·大卫逊 Boaz Davidson (id:1040974)

瓦伦丁·迪米特洛夫 Valentin Dimitrov (id:1194951)

艾威·勒纳 Avi Lerner (id:1027972)

海蒂·乔·马克尔 Heidi Jo Markel (id:1014510)

艾特利·奥瓦逊 Atli ?rvarsson (id:1010033)

特里·斯塔塞 Terry Stacey (id:1298219)

妮科尔·亨布拉 Nicholle Hembra (id:1434456)

◎标 签 喜剧 / 动作 / 美国 / 犯罪 / 2021 / 电影 / 欧美 / 電影

◎简 介

这对世上最要命的混搭-——保镖迈克尔·布莱斯和杀手大流士·金凯,再次执行一项要命任务。

大流士反复无常更胜以往的妻子——臭名昭著的国际诈骗家索尼娅·金凯迫使布莱斯出山。

布莱斯被这俩最危险的保护对象逼得走投无路,三人在一个全球级的阴谋中陷入困境,很快还发现他们是一个大疯子复仇欧洲的唯一障碍。

摩根·弗里曼也加入了这场有趣而又致命的乱局,他饰演的是——嗯,不得不看。

  1. ##### MediaInfo ######

  2. General

  3. Unique ID : 33753263918660163834740291019060437224 (0x1964A46543BD5254B633C9334D2A60E8)

  4. Complete name : Hitmans.Wifes.Bodyguar[email protected]MKVHome.mkv

  5. Format : Matroska

  6. Format version : Version 4

  7. File size : 10.5 GiB

  8. Duration : 1 h 56 min

  9. Overall bit rate mode : Variable

  10. Overall bit rate : 12.9 Mb/s

  11. Encoded date : UTC 2021-12-07 12:29:17

  12. Writing application : mkvmerge v49.0.0 ('Sick Of Losing Soulmates') 64-bit

  13. Writing library : libebml v1.4.0 + libmatroska v1.6.1


  14. Video

  15. ID : 1

  16. Format : HEVC

  17. Format/Info : High Efficiency Video Coding

  18. Format profile : Main [email protected]@High

  19. Codec ID : V_MPEGH/ISO/HEVC

  20. Duration : 1 h 56 min

  21. Bit rate : 7 546 kb/s

  22. Width : 1 920 pixels

  23. Height : 804 pixels

  24. Display aspect ratio : 2.40:1

  25. Frame rate mode : Constant

  26. Frame rate : 23.976 (24000/1001/53354) FPS

  27. Color space : YUV

  28. Chroma subsampling : 4:2:0

  29. Bit depth : 10 bits

  30. Bits/(Pixel*Frame) : 0.204

  31. Stream size : 6.15 GiB (59%)

  32. Title : HEVC, [email protected]@High, 24/1.001 fps @ 7546 kbps

  33. Writing library : x265 3.4+14-gd419c7152:[Windows][GCC 10.2.0][64 bit] 10bit

  34. Encoding settings : cpuid=533541111039 / frame-threads=4 / numa-pools=16 / wpp / pmode / pme / no-psnr / no-ssim / log-level=2 / input-csp=1 / input-res=1920x804 / interlace=0 / total-frames=167808 / level-idc=51 / high-tier=1 / uhd-bd=0 / ref=5 / no-allow-non-conformance / no-repeat-headers / annexb / no-aud / no-hrd / info / hash=0 / no-temporal-layers / open-gop / min-keyint=24 / keyint=240 / gop-lookahead=0 / bframes=6 / b-adapt=2 / b-pyramid / bframe-bias=0 / rc-lookahead=40 / lookahead-slices=0 / NTMzNTQ=uuDQuD2mJt9fsCf / scenecut=40 / hist-scenecut=0 / radl=0 / no-splice / no-intra-refresh / ctu=32 / min-cu-size=8 / no-rect / no-amp / max-tu-size=32 / tu-inter-depth=3 / tu-intra-depth=3 / limit-tu=4 / rdoq-level=2 / dynamic-rd=0.00 / no-ssim-rd / signhide / no-tskip / nr-intra=0 / nr-inter=0 / no-constrained-intra / no-strong-intra-smoothing / max-merge=4 / limit-refs=1 / limit-modes / me=3 / subme=4 / merange=25 / temporal-mvp / no-frame-dup / no-hme / weightp / weightb / no-analyze-src-pics / deblock=-3:-3 / no-sao / no-sao-non-deblock / rd=6 / selective-sao=0 / no-early-skip / rskip / no-fast-intra / no-tskip-fast / no-cu-lossless / b-intra / no-splitrd-skip / rdpenalty=0 / psy-rd=2.00 / psy-rdoq=1.00 / no-rd-refine / no-lossless / cbqpoffs=0 / crqpoffs=0 / rc=crf / crf=17.0 / qcomp=0.65 / qpstep=4 / stats-write=0 / stats-read=0 / vbv-maxrate=80000 / vbv-bufsize=80000 / vbv-init=0.9 / crf-max=0.0 / crf-min=0.0 / ipratio=1.40 / pbratio=1.30 / aq-mode=2 / aq-strength=0.85 / cutree / zone-count=0 / no-strict-cbr / qg-size=32 / no-rc-grain / qpmax=69 / qpmin=0 / no-const-vbv / sar=1 / overscan=0 / videoformat=5 / range=0 / colorprim=1 / transfer=1 / colormatrix=1 / chromaloc=0 / display-window=0 / cll=0,0 / min-luma=0 / max-luma=1023 / log2-max-poc-lsb=8 / vui-timing-info / vui-hrd-info / slices=1 / no-opt-qp-pps / no-opt-ref-list-length-pps / no-multi-pass-opt-rps / scenecut-bias=0.05 / hist-threshold=0.03 / no-opt-cu-delta-qp / no-aq-motion / no-hdr10 / no-hdr10-opt / no-dhdr10-opt / no-idr-recovery-sei / analysis-reuse-level=0 / analysis-save-reuse-level=0 / analysis-load-reuse-level=0 / scale-factor=0 / refine-intra=0 / refine-inter=0 / refine-mv=1 / refine-ctu-distortion=0 / no-limit-sao / ctu-info=0 / no-lowpass-dct / refine-analysis-type=0 / copy-pic=1 / max-ausize-factor=1.0 / no-dynamic-refine / no-single-sei / no-hevc-aq / no-svt / no-field / qp-adaptation-range=1.00 / no-scenecut-aware-qpconformance-window-offsets / right=0 / bottom=0 / NTMzNTQ= / decoder-max-rate=0

  35. Language : English

  36. Default : Yes

  37. Forced : No

  38. Color range : Limited

  39. Color primaries : BT.709

  40. Transfer characteristics : BT.709

  41. Matrix coefficients : BT.709


  42. Audio

  43. ID : 2

  44. Format : DTS XLL

  45. Format/Info : Digital Theater Systems

  46. Commercial name : DTS-HD Master Audio

  47. Codec ID : A_DTS

  48. Duration : 1 h 56 min

  49. Bit rate mode : Variable

  50. Bit rate : 4 960 kb/s

  51. Channel(s) : 8 channels

  52. Channel layout : C L R LFE Lb Rb Lss Rss

  53. Sampling rate : 48.0 kHz

  54. Frame rate : 93.750 FPS (512 SPF)

  55. Bit depth : 24 bits

  56. Compression mode : Lossless

  57. Stream size : 4.04 GiB (39%)

  58. Title : English DTS-HD Master Audio 7.1 @ 4960 kbps

  59. Language : English

  60. Default : Yes

  61. Forced : No


  62. Text #1

  63. ID : 3

  64. Format : PGS

  65. Codec ID : S_HDMV/PGS

  66. Codec ID/Info : Picture based subtitle format used on BDs/HD-DVDs

  67. Duration : 1 h 49 min

  68. Bit rate : 54.6 kb/s

  69. Count of elements : 2514

  70. Stream size : 42.8 MiB (0%)

  71. Title : Eng/SUP

  72. Language : English

  73. Default : No

  74. Forced : No


  75. Text #2

  76. ID : 4

  77. Format : PGS

  78. Codec ID : S_HDMV/PGS

  79. Codec ID/Info : Picture based subtitle format used on BDs/HD-DVDs

  80. Duration : 1 h 49 min

  81. Bit rate : 51.3 kb/s

  82. Count of elements : 3982

  83. Stream size : 40.1 MiB (0%)

  84. Title : Chs/SUP 简体

  85. Language : Chinese

  86. Default : Yes

  87. Forced : No


  88. Text #3

  89. ID : 5

  90. Format : PGS

  91. Codec ID : S_HDMV/PGS

  92. Codec ID/Info : Picture based subtitle format used on BDs/HD-DVDs

  93. Duration : 1 h 49 min

  94. Bit rate : 53.0 kb/s

  95. Count of elements : 3982

  96. Stream size : 41.5 MiB (0%)

  97. Title : Cht/SUP 繁体

  98. Language : Chinese

  99. Default : No

  100. Forced : No


  101. Text #4

  102. ID : 6

  103. Format : PGS

  104. Codec ID : S_HDMV/PGS

  105. Codec ID/Info : Picture based subtitle format used on BDs/HD-DVDs

  106. Duration : 1 h 49 min

  107. Bit rate : 115 kb/s

  108. Count of elements : 4231

  109. Stream size : 89.8 MiB (1%)

  110. Title : Chs/SUP 简英双语

  111. Language : Chinese

  112. Default : No

  113. Forced : No


  114. Text #5

  115. ID : 7

  116. Format : PGS

  117. Codec ID : S_HDMV/PGS

  118. Codec ID/Info : Picture based subtitle format used on BDs/HD-DVDs

  119. Duration : 1 h 49 min

  120. Bit rate : 118 kb/s

  121. Count of elements : 4231

  122. Stream size : 92.7 MiB (1%)

  123. Title : Cht/SUP 繁英双语

  124. Language : Chinese

  125. Default : No

  126. Forced : No


  127. Menu

  128. 00:00:00.000 : en:第 01 章

  129. 00:09:14.095 : en:第 02 章

  130. 00:19:37.093 : en:第 03 章

  131. 00:29:26.431 : en:第 04 章

  132. 00:36:33.650 : en:第 05 章

  133. 00:47:14.540 : en:第 06 章

  134. 00:56:26.300 : en:第 07 章

  135. 01:10:33.312 : en:第 08 章

  136. 01:20:05.801 : en:第 09 章

  137. 01:29:03.004 : en:第 10 章

  138. 01:35:24.928 : en:第 11 章

  139. 01:48:43.183 : en:第 12 章




复制代码



文件下载


除非特别注明,本文『王牌保镖2[简繁字幕].Hitmans.Wifes.Bodyguard.2021.Extended.Cut.BluRay.1080p.DTS-HD.MA.7.1.x265.10bit 10.49GB』来源于互联网机器人自动抓取,非本站原创。 浮游电影网不对本文拥有版权,如有侵犯,请联系邮箱:fuyouu#yandex.com[#换成@]投诉。我们会在15个工作日内删除。 但烦请转载时请标明出处:“本文转载于『浮游电影网』,原文地址:https://www.fuyouu.com/19203.html

评论吧骚年!

发表你的见解   

昵称*

E-mail*(建议输入,以便收到博主回复的提示邮件)

验证码*

您可以使用eMule或eMule Mod(Windows)、aMule(Win、Linux、Mac)等软件下载eD2k链接。。
eMule收藏集(.emulecollection)文件是您选中的所有链接的列表文件。eMule可以直接下载它们。
按住SHIFT键选择可以选中多个选择框。
可用文件名和大小选择器来选择文件。
文件名选择器帮您根据文件名称或后缀来选择文件。不分大小写。
符号使用:
和:空格( )、+
不包含:-
或:|
转义:一对英文引号("");
匹配开头:^
匹配结尾:$
例如:
选中所有名称中包含有“eMule”或“0.49c”字眼,但不包含有“exe”字眼的:emule|0.49c -exe
选中所有名称的开头是“eMule”,结尾是“0.49c”的:^emule 0.49c$
选中所有名称中带有“eMule 0.49c”的(必须是“eMule 0.49c”,中间没有别的字符,不能是“eMule fake 0.49c”),需要转义:"emule 0.49c"
大小选择器帮您根据文件大小选择文件。