当前位置: 首页 >> 国产电影 >> 九叔之古棺奇案1[国语配音/中文字幕].Jiu.Shu.Zhi.Gu.Guan.Qi.An.1.2021.2160p.WEB-DL.H265.DDP2.0 1.91GB >> 正文

九叔之古棺奇案1[国语配音/中文字幕].Jiu.Shu.Zhi.Gu.Guan.Qi.An.1.2021.2160p.WEB-DL.H265.DDP2.0 1.91GB

2021年12月08日 10:22:06     电影发布:来源于网络     电影分类:国产电影     评论(0)    

九叔之古棺奇案1[国语配音/中文字幕].Jiu.Shu.Zhi.Gu.Guan.Qi.An.1.2021.2160p.WEB DL.H265.DDP2.0 1.91GB 悬疑片 奇幻片 动作片 国产电影  第1张

◎译 名 九叔之古棺奇案1 / 九叔之古棺奇案

◎年 代 2021

◎产 地 中国大陆

◎类 别 动作 / 悬疑 / 奇幻

◎语 言 汉语普通话

◎上映日期 2021-12-07(中国大陆网络)

◎IMDb链接 https://www.imdb.com/title//

◎豆瓣链接 https://movie.douban.com/subject/35438078/

◎片 长 87分钟

◎导 演 姚锐 Rui Yao (id:1464123)

◎演 员 刘铁柱 Tiezhu Liu (id:1455636)

岳冬峰 Dongfeng Yue (id:1355556)

李潍禹 Weiyu Li (id:1464121)

高天 Tian Gao (id:1460009)

◎标 签 大陆 / 电影 / 动作 / 中国 / 2021 / 纪录片 / 剧情

◎简 介

天狗食日,极阴之时,龙脉古墓尸虫横行,盘棺血蟒出逃食人,九叔师徒一行也受到僵尸兵团的攻击,小镇惨剧频生。警察厅联合九叔展开紧急调查,被害百姓多身中阴毒,尸身邪戾。九叔师徒暗中走访,在被邀前去诊治中毒的日本人之时,撞破了日本武士团的盗墓阴谋,被日本人绑上刑架处以绞刑。命悬一线的时刻,九叔如何逃出生天斩僵除魔守护国宝?而日本盗墓团伙究竟还暗藏着哪些不法勾当?正邪大战一触即发……

  1. ##### MediaInfo ######

  2. General

  3. Unique ID : 158553592726050742790854470680397395735 (0x77484FAAF151ED2E9E4CDFC9B46AB717)

  4. Complete name : 九叔之古棺奇案1.[email protected]MKVHome.mkv

  5. Format : Matroska

  6. Format version : Version 4

  7. File size : 1.91 GiB

  8. Duration : 1 h 27 min

  9. Overall bit rate : 3 110 kb/s

  10. Encoded date : UTC 2021-12-07 02:03:59

  11. Writing application : mkvmerge v56.1.0 ('My Friend') 64-bit

  12. Writing library : libebml v1.4.2 + libmatroska v1.6.4


  13. Video

  14. ID : 2

  15. Format : HEVC

  16. Format/Info : High Efficiency Video Coding

  17. Format profile : [email protected]@Main

  18. Codec ID : V_MPEGH/ISO/HEVC

  19. Duration : 1 h 27 min

  20. Bit rate : 2 852 kb/s

  21. Width : 3 840 pixels

  22. Height : 2 160 pixels

  23. Display aspect ratio : 16:9

  24. Frame rate mode : Constant

  25. Frame rate : 25.000 FPS

  26. Color space : YUV

  27. Chroma subsampling : 4:2:0

  28. Bit depth : 8 bits

  29. Bits/(Pixel*Frame) : 0.014

  30. Stream size : 1.75 GiB (92%)

  31. Default : Yes

  32. Forced : No

  33. Color range : Limited

  34. Color primaries : BT.709

  35. Transfer characteristics : BT.709

  36. Matrix coefficients : BT.709


  37. Audio

  38. ID : 1

  39. Format : E-AC-3

  40. Format/Info : Enhanced AC-3

  41. Commercial name : Dolby Digital Plus

  42. Codec ID : A_EAC3

  43. Duration : 1 h 27 min

  44. Bit rate mode : Constant

  45. Bit rate : 256 kb/s

  46. Channel(s) : 2 channels

  47. Channel layout : L R

  48. Sampling rate : 48.0 kHz

  49. Frame rate : 31.250 FPS (1536 SPF)

  50. Compression mode : Lossy

  51. Stream size : 161 MiB (8%)

  52. Service kind : Complete Main

  53. Default : Yes

  54. Forced : No




复制代码



文件下载


除非特别注明,本文『九叔之古棺奇案1[国语配音/中文字幕].Jiu.Shu.Zhi.Gu.Guan.Qi.An.1.2021.2160p.WEB-DL.H265.DDP2.0 1.91GB』来源于互联网机器人自动抓取,非本站原创。 浮游电影网不对本文拥有版权,如有侵犯,请联系邮箱:fuyouu#yandex.com[#换成@]投诉。我们会在15个工作日内删除。 但烦请转载时请标明出处:“本文转载于『浮游电影网』,原文地址:https://www.fuyouu.com/19199.html

评论吧骚年!

发表你的见解   

昵称*

E-mail*(建议输入,以便收到博主回复的提示邮件)

验证码*

您可以使用eMule或eMule Mod(Windows)、aMule(Win、Linux、Mac)等软件下载eD2k链接。。
eMule收藏集(.emulecollection)文件是您选中的所有链接的列表文件。eMule可以直接下载它们。
按住SHIFT键选择可以选中多个选择框。
可用文件名和大小选择器来选择文件。
文件名选择器帮您根据文件名称或后缀来选择文件。不分大小写。
符号使用:
和:空格( )、+
不包含:-
或:|
转义:一对英文引号("");
匹配开头:^
匹配结尾:$
例如:
选中所有名称中包含有“eMule”或“0.49c”字眼,但不包含有“exe”字眼的:emule|0.49c -exe
选中所有名称的开头是“eMule”,结尾是“0.49c”的:^emule 0.49c$
选中所有名称中带有“eMule 0.49c”的(必须是“eMule 0.49c”,中间没有别的字符,不能是“eMule fake 0.49c”),需要转义:"emule 0.49c"
大小选择器帮您根据文件大小选择文件。