当前位置: 首页 >> 港台电影 >> 暗花[国语音轨/中文字幕].The.Longest.Nite.1998.FRA.1080p.BluRay.x265.10bit.AC3.MNHD-btbt9527.com 9.31GB >> 正文

暗花[国语音轨/中文字幕].The.Longest.Nite.1998.FRA.1080p.BluRay.x265.10bit.AC3.MNHD-btbt9527.com 9.31GB

2021年12月08日 10:20:35     电影发布:来源于网络     电影分类:港台电影     评论(0)    

暗花[国语音轨/中文字幕].The.Longest.Nite.1998.FRA.1080p.BluRay.x265.10bit.AC3.MNHD btbt9527.com 9.31GB 悬疑片 犯罪片 动作片 剧情片 港台电影  第1张

◎译 名 暗花 / 暗花之杀人条件 / 非战攻略 / Am faa / The Longest Nite / The Longest Night / Hidden Reward

◎年 代 1998

◎产 地 中国香港

◎类 别 剧情 / 动作 / 悬疑 / 犯罪

◎语 言 粤语

◎上映日期 1998-01-01

◎IMDb链接 https://www.imdb.com/title/tt0168043/

◎豆瓣评分 8.4/10 (86481人评价)

◎豆瓣链接 https://movie.douban.com/subject/1292450/

◎片 长 81分钟

◎导 演 游达志 Tat-Chi Yau (id:1274367)

◎编 剧 司徒锦源 Kam-Yuen Szeto (id:1298766)

游乃海 Nai-Hoi Yau (id:1161310)

◎演 员 刘青云 Sean Lau (id:1007251)

梁朝伟 Tony Leung Chiu Wai (id:1115918)

邵美琪 Maggie Siu (id:1152997)

王天林 Tian-lin Wang (id:1041074)

卢海鹏 Hoi-Pang Lo (id:1038772)

郑浩南 Mark Cheng (id:1028605)

林雪 Suet Lam (id:1274279)

龙方 Fong Lung (id:1290470)

林富伟 Fu-wai Lam (id:1433957)

林志泰 Chi Tai Lam (id:1433961)

缪健德 Kin-Tak Mou (id:1336324)

程小龙 Ronny Ching Siu-Lung (id:1334548)

方刚 Kong Fong (id:1315260)

赵志诚 Chiu Chi Shing (id:1326360)

元彬 Bun Yuen (id:1278657)

杜琪峰 Johnnie To (id:1160186)

黄英华 Ying-Wah Wong (id:1301204)

郑兆强 Siu-keung Cheng (id:1280597)

陈志伟 Chi Wai Chan (id:1280415)

文润铃 Yun-Ling Man (id:1290093)

缪健德 Kin-Tak Mou (id:1336324)

罗永昌 Wing-cheong Law (id:1274489)

胡智龙 Bobby Wu Chi-Lung (id:1330736)

张荣祥 Cheung Wing-Cheung (id:1326361)

◎标 签 梁朝伟 / 香港 / 杜琪峰 / 刘青云 / 黑帮 / 香港电影 / 银河映像 / 犯罪

◎简 介

澳门两大黑帮洪兴帮和义英帮为争夺赌场利益火并数月后决定言和,不想这时江湖上传出洪兴帮老大崩牙华已出五百万高价聘请外来杀手,准备不日刺杀义英帮大哥高佬忠。为保证高佬忠的安全以免天下再次大乱,崩牙华派出手下得力干将也是腐败警察的阿琛(梁朝伟)去阻止事情发生。

光头杀手耀东( 刘青云)和神秘女子阿凤(邵美琪)常在阿琛左右出没,不断给他制造麻烦。原来,耀东是黑帮幕后老大洪先生派来的粉碎洪兴帮和义英帮的超级杀手,他的杀人手段十分精妙狠绝。经过一番安排,耀东制造出崩牙华与高佬忠均死于阿琛手中的局面,然而他的命运亦不掌控在自己手中。

◎获奖情况 (共5项)

第35届台北金马影展 (1998)

金马奖 最佳原著剧本(提名)

第18届香港电影金像奖 (1999)

最佳导演(提名)

└──游达志 (id:1274367)

最佳编剧(提名)

最佳男主角(提名)

最佳剪接(提名)

└──陈志伟 (id:1280415)

  1. ##### MediaInfo ######

  2. General

  3. Unique ID : 5471960252563779812440440038309076635 (0x41DDC784A6D87045353C08871559E9B)

  4. Complete name : T[email protected]MKVHome.mkv

  5. Format : Matroska

  6. Format version : Version 4

  7. File size : 9.31 GiB

  8. Duration : 1 h 24 min

  9. Overall bit rate : 15.8 Mb/s

  10. Movie name : T[email protected]MKVHome

  11. Encoded date : UTC 2021-12-06 17:48:22

  12. Writing application : mkvmerge v61.0.0 ('So') 64-bit

  13. Writing library : libebml v1.4.2 + libmatroska v1.6.4

  14. Cover : Yes

  15. Attachments : cover.jpg


  16. Video

  17. ID : 1

  18. Format : HEVC

  19. Format/Info : High Efficiency Video Coding

  20. Format profile : Main [email protected]@High

  21. Codec ID : V_MPEGH/ISO/HEVC

  22. Duration : 1 h 24 min

  23. Bit rate : 15.1 Mb/s

  24. Width : 1 920 pixels

  25. Height : 880 pixels

  26. Display aspect ratio : 2.2:1

  27. Frame rate mode : Constant

  28. Frame rate : 24.000 FPS

  29. Color space : YUV

  30. Chroma subsampling : 4:2:0

  31. Bit depth : 10 bits

  32. Bits/(Pixel*Frame) : 0.373

  33. Stream size : 8.93 GiB (96%)

  34. Writing library : x265 3.5+2-g2b25c9ba0+45:[Windows][GCC 10.2.0][64 bit] Yuuki 10bit

  35. Encoding settings : rc=crf / crf=21.0000 / qcomp=0.65 / qpstep=4 / stats-write=0 / stats-read=0 / vbv-maxrate=160000 / vbv-bufsize=160000 / vbv-init=0.9 / min-vbv-fullness=50.0 / max-vbv-fullness=80.0 / crf-max=0.0 / crf-min=0.0 / no-lossless / no-cu-lossless / aq-mode=1 / aq-strength=1.00 / cbqpoffs=-2 / crqpoffs=-2 / ipratio=1.30 / pbratio=1.20 / psy-rd=1.50 / psy-rdoq=1.00 / deblock=-3:-3 / ref=6 / limit-refs=0 / no-limit-modes / bframes=8 / b-adapt=2 / bframe-bias=0 / b-pyramid / b-intra / weightp / weightb / min-keyint=1 / max-keyint=250 / rc-lookahead=100 / gop-lookahead=0 / NTMzNTQ=uuDQuD2mJt9fsCf / scenecut=40 / hist-scenecut=0 / radl=0 / max-cu-size=32 / min-cu-size=8 / me=3 / subme=7 / merange=57 / rdoq-level=2 / rd=4 / rdpenalty=0 / dynamic-rd=0.00 / no-rd-refine / ----- / no-cutree / no-sao / no-rect / no-amp / no-open-gop / wpp / pmode / no-pme / no-psnr / no-ssim / nr-intra=0 / nr-inter=0 / no-constrained-intra / strong-intra-smoothing / max-tu-size=32 / tu-inter-depth=4 / tu-intra-depth=4 / limit-tu=0 / qg-size=8 / qpmax=69 / qpmin=0 / ----- / cpuid=533541111039 / frame-threads=3 / numa-pools=12 / log-level=2 / input-csp=1 / input-res=1920x880 / interlace=0 / level-idc=0 / high-tier=1 / uhd-bd=0 / no-allow-non-conformance / no-repeat-headers / no-aud / no-hrd / info / hash=0 / no-temporal-layers / lookahead-slices=0 / no-splice / no-intra-refresh / no-ssim-rd / signhide / tskip / max-merge=5 / temporal-mvp / no-frame-dup / no-hme / no-analyze-src-pics / no-sao-non-deblock / selective-sao=0 / no-early-skip / no-rskip / no-fast-intra / no-tskip-fast / no-splitrd-skip / zone-count=0 / no-strict-cbr / no-rc-grain / no-const-vbv / sar=0 / overscan=0 / videoformat=5 / range=0 / colorprim=1 / transfer=1 / colormatrix=1 / chromaloc=0 / display-window=0 / cll=0,0 / min-luma=0 / max-luma=1023 / log2-max-poc-lsb=8 / vui-timing-info / vui-hrd-info / slices=1 / no-opt-qp-pps / no-opt-ref-list-length-pps / no-multi-pass-opt-rps / scenecut-bias=0.05 / hist-threshold=0.03 / no-opt-cu-delta-qp / no-aq-motion / no-hdr10 / no-hdr10-opt / no-dhdr10-opt / no-idr-recovery-sei / analysis-reuse-level=0 / analysis-save-reuse-level=0 / analysis-load-reuse-level=0 / scale-factor=0 / refine-intra=0 / refine-inter=0 / refine-mv=1 / refine-ctu-distortion=0 / no-limit-sao / ctu-info=0 / no-lowpass-dct / refine-analysis-type=0 / copy-pic=1 / max-ausize-factor=1.0 / no-dynamic-refine / no-single-sei / no-hevc-aq / no-svt / no-field / qp-adaptation-range=1.00 / scenecut-aware-qp=0conformance-window-offsets / right=0 / bottom=0 / NTMzNTQ= / decoder-max-rate=0 / no-vbv-live-multi-pass

  36. Default : Yes

  37. Forced : No

  38. Color range : Limited

  39. Color primaries : BT.709

  40. Transfer characteristics : BT.709

  41. Matrix coefficients : BT.709


  42. Audio

  43. ID : 2

  44. Format : AC-3

  45. Format/Info : Audio Coding 3

  46. Commercial name : Dolby Digital

  47. Codec ID : A_AC3

  48. Duration : 1 h 24 min

  49. Bit rate mode : Constant

  50. Bit rate : 640 kb/s

  51. Channel(s) : 6 channels

  52. Channel layout : L R C LFE Ls Rs

  53. Sampling rate : 48.0 kHz

  54. Frame rate : 31.250 FPS (1536 SPF)

  55. Compression mode : Lossy

  56. Stream size : 387 MiB (4%)

  57. Title : CHT

  58. Language : Chinese

  59. Service kind : Complete Main

  60. Default : Yes

  61. Forced : No


  62. Text #1

  63. ID : 3

  64. Format : UTF-8

  65. Codec ID : S_TEXT/UTF8

  66. Codec ID/Info : UTF-8 Plain Text

  67. Duration : 1 h 22 min

  68. Bit rate : 23 b/s

  69. Count of elements : 548

  70. Stream size : 14.3 KiB (0%)

  71. Title : CHS

  72. Language : Chinese

  73. Default : Yes

  74. Forced : No


  75. Text #2

  76. ID : 4

  77. Format : UTF-8

  78. Codec ID : S_TEXT/UTF8

  79. Codec ID/Info : UTF-8 Plain Text

  80. Duration : 1 h 22 min

  81. Bit rate : 23 b/s

  82. Count of elements : 548

  83. Stream size : 14.3 KiB (0%)

  84. Title : CHT

  85. Language : Chinese

  86. Default : Yes

  87. Forced : No


  88. Menu

  89. 00:00:00.000 : Chapter 01

  90. 00:09:49.583 : Chapter 02

  91. 00:18:55.416 : Chapter 03

  92. 00:29:25.333 : Chapter 04

  93. 00:39:24.666 : Chapter 05

  94. 00:49:26.166 : Chapter 06

  95. 00:59:56.291 : Chapter 07

  96. 01:09:00.958 : Chapter 08

  97. 01:19:25.875 : Chapter 09


文件下载


除非特别注明,本文『暗花[国语音轨/中文字幕].The.Longest.Nite.1998.FRA.1080p.BluRay.x265.10bit.AC3.MNHD-btbt9527.com 9.31GB』来源于互联网机器人自动抓取,非本站原创。 浮游电影网不对本文拥有版权,如有侵犯,请联系邮箱:fuyouu#yandex.com[#换成@]投诉。我们会在15个工作日内删除。 但烦请转载时请标明出处:“本文转载于『浮游电影网』,原文地址:https://www.fuyouu.com/19198.html

评论吧骚年!

发表你的见解   

昵称*

E-mail*(建议输入,以便收到博主回复的提示邮件)

验证码*

您可以使用eMule或eMule Mod(Windows)、aMule(Win、Linux、Mac)等软件下载eD2k链接。。
eMule收藏集(.emulecollection)文件是您选中的所有链接的列表文件。eMule可以直接下载它们。
按住SHIFT键选择可以选中多个选择框。
可用文件名和大小选择器来选择文件。
文件名选择器帮您根据文件名称或后缀来选择文件。不分大小写。
符号使用:
和:空格( )、+
不包含:-
或:|
转义:一对英文引号("");
匹配开头:^
匹配结尾:$
例如:
选中所有名称中包含有“eMule”或“0.49c”字眼,但不包含有“exe”字眼的:emule|0.49c -exe
选中所有名称的开头是“eMule”,结尾是“0.49c”的:^emule 0.49c$
选中所有名称中带有“eMule 0.49c”的(必须是“eMule 0.49c”,中间没有别的字符,不能是“eMule fake 0.49c”),需要转义:"emule 0.49c"
大小选择器帮您根据文件大小选择文件。