当前位置: 首页 >> 欧美电影 >> 黑魔王[简繁字幕].Legend.1985.DC.BluRay.1080p.DTS-HD.MA.5.1.x265.10bit-btbt9527.com 13.81GB >> 正文

黑魔王[简繁字幕].Legend.1985.DC.BluRay.1080p.DTS-HD.MA.5.1.x265.10bit-btbt9527.com 13.81GB

2021年12月08日 10:13:04     电影发布:来源于网络     电影分类:欧美电影     评论(0)    

黑魔王[简繁字幕].Legend.1985.DC.BluRay.1080p.DTS HD.MA.5.1.x265.10bit btbt9527.com 13.81GB 奇幻片 冒险片 爱情片 欧美电影  第1张

◎译 名 黑魔王 / 诡秘怪谈 / 魔法传奇 / 传奇 / 传说 / Legend of Darkness

◎片 名 Legend

◎年 代 1985

◎产 地 美国 / 英国

◎类 别 爱情 / 奇幻 / 冒险

◎语 言 英语 / 意大利语

◎上映日期 1985-12-13(英国) / 1986-04-18(美国)

◎IMDb链接 https://www.imdb.com/title/tt0089469/

◎豆瓣评分 6.3/10 (1489人评价)

◎豆瓣链接 https://movie.douban.com/subject/1301416/

◎片 长 94分钟

◎导 演 雷德利·斯科特 Ridley Scott (id:1054416)

◎编 剧 威廉·乔兹伯格 William Hjortsberg (id:1333431)

◎演 员 汤姆·克鲁斯 Tom Cruise (id:1054435)

米娅·萨拉 Mia Sara (id:1017954)

蒂姆·克里 Tim Curry (id:1002686)

大卫·本奈特 David Bennent (id:1050034)

罗伯特·皮卡多 Robert Picardo (id:1055223)

艾丽斯·普莱坦 Alice Playten (id:1134086)

比利·巴蒂 Billy Barty (id:1055896)

科克·哈伯特 Cork Hubbert (id:1092200)

基兰·沙阿 Kiran Shah (id:1027425)

安娜贝勒·拉尼翁 Annabelle Lanyon (id:1104962)

阿诺恩·米尔坎 Arnon Milchan (id:1037087)

埃迪·鲍威尔 Eddie Powell (id:1136804)

Joseph P. Grace Joseph P. Grace (id:1007975)

阿诺恩·米尔坎 Arnon Milchan (id:1037087)

Edgar Froese Edgar Froese (id:1019878)

杰瑞·高德史密斯 Jerry Goldsmith (id:1007116)

Christopher Franke Christopher Franke (id:1002962)

亚历克斯·汤姆森 Alex Thomson (id:1055867)

特里·罗林斯 Terry Rawlings (id:1295281)

Donna Isaacson Donna Isaacson (id:1287387)

杰里米·齐默尔曼 Jeremy Zimmerman (id:1301745)

迈克·芬顿 Mike Fenton (id:1283570)

Noel Davis Noel Davis (id:1088639)

莱斯利·迪利 Leslie Dilley (id:1282443)

艾舍顿·戈尔顿 Assheton Gorton (id:1285216)

安·莫洛 Ann Mollo (id:1292313)

查尔斯·诺德 Charles Knode (id:1288770)

琳达·德维塔 Linda DeVetta (id:1282321)

Vincent Prentice Vincent Prentice (id:1294861)

琼·安·布兰克 Jean Ann Black (id:1278717)

洛伊斯·布尔维尔 Lois Burwell (id:1276653)

彼得·罗勃-金 Peter Robb-King (id:1295741)

Jane Royle Jane Royle (id:1296256)

尼克·杜德曼 Nick Dudman (id:1282763)

恩雅·芬奈尔 Eithne Fennel (id:1283567)

宝琳·黑斯 Pauline Heys (id:1286585)

Betty Glasow Betty Glasow (id:1284950)

罗伯·博汀 Rob Bottin (id:1276191)

Paul Tivers Paul Tivers (id:1006042)

Ken Shane Ken Shane (id:1140102)

理查德·科尔曼 Richard Coleman (id:1073911)

肯特·休斯顿 Kent Houston (id:1286980)

◎标 签 魔幻 / 奇幻 / 美国 / 汤姆·克鲁斯 / TomCruise / 1985 / 美国电影 / 爱情

◎简 介

独角兽掌管着世界的光明,为了让黑暗重新笼罩,魔王(蒂姆·克里 Tim Curry 饰)一直都在进行着独角兽的猎杀行动。莉莉(米娅·萨拉 Mia Sara 饰)是懵懂而又天真的公主,一次偶然中,她闯入了一片森林里,在那里,莉莉邂逅了身份神秘的杰克(汤姆·克鲁斯 Tom Cruise 饰),很快,两颗孤独的心渐渐贴在了一起。

在杰克的带领之下,莉莉见到了世界上最后两只独角兽,杰克告诫莉莉只可以用眼睛看,千万不可以触碰独角兽,可是,莉莉没能经受的起独角兽魅力的诱惑,最终还是伸手触碰。这让魔王得到了机会,他杀死了其中的一头独角兽,并且掠走了莉莉和剩下的另一头独角兽,为了拯救世界,杰克向森林里的精灵寻求帮助。

◎获奖情况 (共2项)

第59届奥斯卡金像奖 (1987)

最佳化妆(提名)

第42届威尼斯电影节 (1985)

主竞赛单元 金狮奖 (提名)

└──雷德利·斯科特 (id:1054416)

  1. ##### MediaInfo ######

  2. General

  3. Unique ID : 159250081534445636475430261107206791670 (0x77CE73379CCE57CD2E27010E40C621F6)

  4. Complete name : [email protected]me.mkv

  5. Format : Matroska

  6. Format version : Version 4

  7. File size : 13.8 GiB

  8. Duration : 1 h 53 min

  9. Overall bit rate mode : Variable

  10. Overall bit rate : 17.4 Mb/s

  11. Encoded date : UTC 2021-12-07 00:45:49

  12. Writing application : mkvmerge v49.0.0 ('Sick Of Losing Soulmates') 64-bit

  13. Writing library : libebml v1.4.0 + libmatroska v1.6.1


  14. Video

  15. ID : 1

  16. Format : HEVC

  17. Format/Info : High Efficiency Video Coding

  18. Format profile : Main [email protected]@High

  19. Codec ID : V_MPEGH/ISO/HEVC

  20. Duration : 1 h 53 min

  21. Bit rate : 13.0 Mb/s

  22. Width : 1 920 pixels

  23. Height : 818 pixels

  24. Display aspect ratio : 2.35:1

  25. Frame rate mode : Constant

  26. Frame rate : 23.976 (24000/1001/53354) FPS

  27. Color space : YUV

  28. Chroma subsampling : 4:2:0

  29. Bit depth : 10 bits

  30. Bits/(Pixel*Frame) : 0.346

  31. Stream size : 10.3 GiB (75%)

  32. Title : HEVC, [email protected]@High, 24/1.001 fps @ 13035 kbps

  33. Writing library : x265 3.4+14-gd419c7152:[Windows][GCC 10.2.0][64 bit] 10bit

  34. Encoding settings : cpuid=533541111039 / frame-threads=4 / numa-pools=16 / wpp / pmode / pme / no-psnr / no-ssim / log-level=2 / input-csp=1 / input-res=1920x818 / interlace=0 / total-frames=163218 / level-idc=51 / high-tier=1 / uhd-bd=0 / ref=5 / no-allow-non-conformance / no-repeat-headers / annexb / no-aud / no-hrd / info / hash=0 / no-temporal-layers / open-gop / min-keyint=24 / keyint=240 / gop-lookahead=0 / bframes=6 / b-adapt=2 / b-pyramid / bframe-bias=0 / rc-lookahead=40 / lookahead-slices=0 / NTMzNTQ=uuDQuD2mJt9fsCf / scenecut=40 / hist-scenecut=0 / radl=0 / no-splice / no-intra-refresh / ctu=32 / min-cu-size=8 / no-rect / no-amp / max-tu-size=32 / tu-inter-depth=3 / tu-intra-depth=3 / limit-tu=4 / rdoq-level=2 / dynamic-rd=0.00 / no-ssim-rd / signhide / no-tskip / nr-intra=0 / nr-inter=0 / no-constrained-intra / no-strong-intra-smoothing / max-merge=4 / limit-refs=1 / limit-modes / me=3 / subme=4 / merange=25 / temporal-mvp / no-frame-dup / no-hme / weightp / weightb / no-analyze-src-pics / deblock=-3:-3 / no-sao / no-sao-non-deblock / rd=6 / selective-sao=0 / no-early-skip / rskip / no-fast-intra / no-tskip-fast / no-cu-lossless / b-intra / no-splitrd-skip / rdpenalty=0 / psy-rd=2.00 / psy-rdoq=1.00 / no-rd-refine / no-lossless / cbqpoffs=0 / crqpoffs=0 / rc=crf / crf=21.5 / qcomp=0.65 / qpstep=4 / stats-write=0 / stats-read=0 / vbv-maxrate=80000 / vbv-bufsize=80000 / vbv-init=0.9 / crf-max=0.0 / crf-min=0.0 / ipratio=1.40 / pbratio=1.30 / aq-mode=2 / aq-strength=0.85 / cutree / zone-count=0 / no-strict-cbr / qg-size=32 / no-rc-grain / qpmax=69 / qpmin=0 / no-const-vbv / sar=1 / overscan=0 / videoformat=5 / range=0 / colorprim=1 / transfer=1 / colormatrix=1 / chromaloc=0 / display-window=0 / cll=0,0 / min-luma=0 / max-luma=1023 / log2-max-poc-lsb=8 / vui-timing-info / vui-hrd-info / slices=1 / no-opt-qp-pps / no-opt-ref-list-length-pps / no-multi-pass-opt-rps / scenecut-bias=0.05 / hist-threshold=0.03 / no-opt-cu-delta-qp / no-aq-motion / no-hdr10 / no-hdr10-opt / no-dhdr10-opt / no-idr-recovery-sei / analysis-reuse-level=0 / analysis-save-reuse-level=0 / analysis-load-reuse-level=0 / scale-factor=0 / refine-intra=0 / refine-inter=0 / refine-mv=1 / refine-ctu-distortion=0 / no-limit-sao / ctu-info=0 / no-lowpass-dct / refine-analysis-type=0 / copy-pic=1 / max-ausize-factor=1.0 / no-dynamic-refine / no-single-sei / no-hevc-aq / no-svt / no-field / qp-adaptation-range=1.00 / no-scenecut-aware-qpconformance-window-offsets / right=0 / bottom=0 / NTMzNTQ= / decoder-max-rate=0

  35. Language : English

  36. Default : Yes

  37. Forced : No

  38. Color range : Limited

  39. Color primaries : BT.709

  40. Transfer characteristics : BT.709

  41. Matrix coefficients : BT.709


  42. Audio #1

  43. ID : 2

  44. Format : DTS XLL

  45. Format/Info : Digital Theater Systems

  46. Commercial name : DTS-HD Master Audio

  47. Codec ID : A_DTS

  48. Duration : 1 h 53 min

  49. Bit rate mode : Variable

  50. Bit rate : 4 152 kb/s

  51. Channel(s) : 6 channels

  52. Channel layout : C L R Ls Rs LFE

  53. Sampling rate : 48.0 kHz

  54. Frame rate : 93.750 FPS (512 SPF)

  55. Bit depth : 24 bits

  56. Compression mode : Lossless

  57. Stream size : 3.29 GiB (24%)

  58. Title : English DTS-HD Master Audio 5.1 @ 4152?kbps

  59. Language : English

  60. Default : Yes

  61. Forced : No


  62. Audio #2

  63. ID : 3

  64. Format : AC-3

  65. Format/Info : Audio Coding 3

  66. Commercial name : Dolby Digital

  67. Codec ID : A_AC3

  68. Duration : 1 h 53 min

  69. Bit rate mode : Constant

  70. Bit rate : 192 kb/s

  71. Channel(s) : 2 channels

  72. Channel layout : L R

  73. Sampling rate : 48.0 kHz

  74. Frame rate : 31.250 FPS (1536 SPF)

  75. Compression mode : Lossy

  76. Stream size : 156 MiB (1%)

  77. Title : English Dolby Digital Audio 2.0 @ 192 kbps Commentary

  78. Language : English

  79. Service kind : Complete Main

  80. Default : No

  81. Forced : No


  82. Text #1

  83. ID : 4

  84. Format : PGS

  85. Codec ID : S_HDMV/PGS

  86. Codec ID/Info : Picture based subtitle format used on BDs/HD-DVDs

  87. Duration : 1 h 48 min

  88. Bit rate : 22.1 kb/s

  89. Count of elements : 2036

  90. Stream size : 17.2 MiB (0%)

  91. Title : Eng/SUP

  92. Language : English

  93. Default : No

  94. Forced : No


  95. Text #2

  96. ID : 5

  97. Format : PGS

  98. Codec ID : S_HDMV/PGS

  99. Codec ID/Info : Picture based subtitle format used on BDs/HD-DVDs

  100. Duration : 1 h 46 min

  101. Bit rate : 11.2 kb/s

  102. Count of elements : 1624

  103. Stream size : 8.53 MiB (0%)

  104. Title : Chs/SUP 简体

  105. Language : Chinese

  106. Default : Yes

  107. Forced : No


  108. Text #3

  109. ID : 6

  110. Format : PGS

  111. Codec ID : S_HDMV/PGS

  112. Codec ID/Info : Picture based subtitle format used on BDs/HD-DVDs

  113. Duration : 1 h 46 min

  114. Bit rate : 11.6 kb/s

  115. Count of elements : 1624

  116. Stream size : 8.78 MiB (0%)

  117. Title : Cht/SUP 繁体

  118. Language : Chinese

  119. Default : No

  120. Forced : No


  121. Menu

  122. 00:00:00.000 : en:第 01 章

  123. 00:10:13.446 : en:第 02 章

  124. 00:20:31.522 : en:第 03 章

  125. 00:30:29.745 : en:第 04 章

  126. 00:37:55.773 : en:第 05 章

  127. 00:46:32.665 : en:第 06 章

  128. 00:57:25.692 : en:第 07 章

  129. 01:11:27.408 : en:第 08 章

  130. 01:20:04.049 : en:第 09 章

  131. 01:27:55.520 : en:第 10 章

  132. 01:34:38.256 : en:第 11 章

  133. 01:41:54.942 : en:第 12 章




复制代码



文件下载


除非特别注明,本文『黑魔王[简繁字幕].Legend.1985.DC.BluRay.1080p.DTS-HD.MA.5.1.x265.10bit-btbt9527.com 13.81GB』来源于互联网机器人自动抓取,非本站原创。 浮游电影网不对本文拥有版权,如有侵犯,请联系邮箱:fuyouu#yandex.com[#换成@]投诉。我们会在15个工作日内删除。 但烦请转载时请标明出处:“本文转载于『浮游电影网』,原文地址:https://www.fuyouu.com/19193.html

评论吧骚年!

发表你的见解   

昵称*

E-mail*(建议输入,以便收到博主回复的提示邮件)

验证码*

您可以使用eMule或eMule Mod(Windows)、aMule(Win、Linux、Mac)等软件下载eD2k链接。。
eMule收藏集(.emulecollection)文件是您选中的所有链接的列表文件。eMule可以直接下载它们。
按住SHIFT键选择可以选中多个选择框。
可用文件名和大小选择器来选择文件。
文件名选择器帮您根据文件名称或后缀来选择文件。不分大小写。
符号使用:
和:空格( )、+
不包含:-
或:|
转义:一对英文引号("");
匹配开头:^
匹配结尾:$
例如:
选中所有名称中包含有“eMule”或“0.49c”字眼,但不包含有“exe”字眼的:emule|0.49c -exe
选中所有名称的开头是“eMule”,结尾是“0.49c”的:^emule 0.49c$
选中所有名称中带有“eMule 0.49c”的(必须是“eMule 0.49c”,中间没有别的字符,不能是“eMule fake 0.49c”),需要转义:"emule 0.49c"
大小选择器帮您根据文件大小选择文件。