当前位置: 首页 >> 欧美电影 >> 简爱[简繁双语字幕].Jane.Eyre.2011.Hybrid.BluRay.1080p.x265.10bit.DDP5.1.MNHD-btbt9527.com 6.53GB >> 正文

简爱[简繁双语字幕].Jane.Eyre.2011.Hybrid.BluRay.1080p.x265.10bit.DDP5.1.MNHD-btbt9527.com 6.53GB

2021年12月08日 10:11:47     电影发布:来源于网络     电影分类:欧美电影     评论(0)    

简爱[简繁双语字幕].Jane.Eyre.2011.Hybrid.BluRay.1080p.x265.10bit.DDP5.1.MNHD btbt9527.com 6.53GB 爱情片 剧情片 欧美电影  第1张

◎译 名 简爱 / 简·爱

◎片 名 Jane Eyre

◎年 代 2011

◎产 地 英国

◎类 别 剧情 / 爱情

◎语 言 英语

◎上映日期 2011-03-11

◎IMDb链接 https://www.imdb.com/title/tt1229822/

◎豆瓣评分 7.5/10 (66240人评价)

◎豆瓣链接 https://movie.douban.com/subject/3073073/

◎片 长 120分钟

◎导 演 凯瑞·福永 Cary Fukunaga (id:1009531)

◎编 剧 夏洛蒂·勃朗特 Charlotte Bront? (id:1045408)

莫拉·巴芙妮 Moira Buffini (id:1330286)

◎演 员 迈克尔·法斯宾德 Michael Fassbender (id:1000010)

米娅·华希科沃斯卡 Mia Wasikowska (id:1025135)

杰米·贝尔 Jamie Bell (id:1053616)

莎莉·霍金斯 Sally Hawkins (id:1044915)

克雷格·罗伯兹 Craig Roberts (id:1214964)

朱迪·丹奇 Judi Dench (id:1054384)

萝西·凯弗利洛 Rosie Cavaliero (id:1313172)

Romy Settbon Moore Romy Settbon Moore (id:1320317)

阿梅利亚·克拉克森 Amelia Clarkson (id:1320313)

艾米丽·海格 Emily Haigh (id:1444751)

约瑟夫·克洛斯卡 Joseph Kloska (id:1418969)

埃格兰婷·朗博维尔-尼科尔 Eglantine Rembauville-Nicolle (id:1312764)

伊莫琴·普茨 Imogen Poots (id:1274510)

Freya Parks Freya Parks (id:1345022)

桑迪·麦克戴 Sandy McDade (id:1439679)

荷丽黛·格兰杰 Holliday Grainger (id:1314352)

瓦伦蒂娜·切尔维 Valentina Cervi (id:1000354)

Mark Tristan Eccles Mark Tristan Eccles (id:1009855)

哈里·劳埃德 Harry Lloyd (id:1040691)

简妮·怀森纳 Jayne Wisener (id:1045087)

西蒙·迈克伯尼 Simon McBurney (id:1049805)

索菲娅·沃德 Sophie Ward (id:1054662)

Su Elliot Su Elliot (id:1082477)

Ben Roberts Ben Roberts (id:1139063)

Sally Reeve Sally Reeve (id:1145011)

塔姆金·莫钦特 Tamzin Merchant (id:1184769)

奈德·丹内利 Ned Dennehy (id:1326563)

Faye Ward Faye Ward (id:1354714)

达里奥·马里安奈利 Dario Marianelli (id:1018392)

阿德里亚诺·戈德曼 Adriano Goldman (id:1303851)

迈克尔·奥康纳 Michael O'Connor (id:1135533)

克里斯蒂安·马雷特 Kristyan Mallett (id:1248091)

保罗·坎特隆 Paul Cantelon (id:1388328)

◎标 签 英国 / 名著改编 / 爱情 / 经典 / 文艺 / 2011 / MichaelFassbender / BBC

◎简 介

从小失去父母的简·爱(米娅·华希科沃斯卡 Mia Wasikowska 饰)寄居在舅妈家,自幼受尽表兄(克雷格·罗伯兹 Craig Roberts 饰)欺辱和舅妈(莎莉·霍金斯 Sally Hawkins 饰)冷眼,稍大些后即被送入管教严格的教会女子学校。在冷漠、刻板环境中长大的简·爱并没有成为心理扭曲的女孩,而是自立自强,还 积累了不凡的学识修养,成年后她成为桑菲尔德贵族庄园的家庭教师。男主人罗切斯特先生(迈克尔·法斯宾德 Michael Fassbender 饰)第一次露面时,与简·爱相识于一场堕马事故,随着二人慢慢熟悉,罗切斯特先生体会到简·爱的与众不同,并渐渐爱上她,简·爱亦受到罗切斯特先生的强烈吸引,但是大宅夜晚总会发生一些怪事,二人的爱情似乎蒙着一层阴影……

本片根据英国作家据夏洛蒂·勃朗特原著改编,是这部名著第18次被搬上大银幕。

◎获奖情况 (共4项)

第84届奥斯卡金像奖 (2012)

最佳服装设计(提名)

└──迈克尔·奥康纳 (id:1135533)

第26届西班牙戈雅奖 (2012)

最佳欧洲电影(提名)

└──凯瑞·福永 (id:1009531)

第17届美国评论家选择电影奖 (2012)

最佳服装设计(提名)

└──迈克尔·奥康纳 (id:1135533)

第11届凤凰城影评人协会奖 (2011)

最佳服装设计(提名)

└──迈克尔·奥康纳 (id:1135533)

  1. ##### MediaInfo ######

  2. General

  3. Unique ID : 257182205860849059955341112486329202880 (0xC17B7DBB8DD3FD550CC8D63B120638C0)

  4. Complete name : [email protected]MKVHome.mkv

  5. Format : Matroska

  6. Format version : Version 4

  7. File size : 6.53 GiB

  8. Duration : 2 h 0 min

  9. Overall bit rate : 7 776 kb/s

  10. Movie name : Jane Eyre 2011 Hybrid BluRay 1080p - FRDS / Jane Eyre (2011)

  11. Encoded date : UTC 2021-12-07 05:50:13

  12. Writing application : mkvmerge v63.0.0 ('Everything') 64-bit

  13. Writing library : libebml v1.4.2 + libmatroska v1.6.4

  14. IMDB : tt1229822

  15. TMDB : movie/38684


  16. Video

  17. ID : 1

  18. Format : HEVC

  19. Format/Info : High Efficiency Video Coding

  20. Format profile : Main [email protected]@High

  21. Codec ID : V_MPEGH/ISO/HEVC

  22. Duration : 2 h 0 min

  23. Bit rate : 6 519 kb/s

  24. Width : 1 920 pixels

  25. Height : 1 040 pixels

  26. Display aspect ratio : 1.85:1

  27. Frame rate mode : Constant

  28. Frame rate : 23.976 (24000/1001/53354) FPS

  29. Color space : YUV

  30. Chroma subsampling : 4:2:0

  31. Bit depth : 10 bits

  32. Bits/(Pixel*Frame) : 0.136

  33. Stream size : 5.47 GiB (84%)

  34. Writing library : x265 3.5+19-8003e4382:[Windows][MSVC 1929][64 bit] 10bit

  35. Encoding settings : cpuid=533541111039 / frame-threads=2 / numa-pools=4 / wpp / pmode / no-pme / no-psnr / no-ssim / log-level=2 / input-csp=1 / input-res=1920x1040 / interlace=0 / total-frames=172801 / level-idc=0 / high-tier=1 / uhd-bd=0 / ref=6 / no-allow-non-conformance / no-repeat-headers / annexb / no-aud / no-eob / no-eos / no-hrd / info / hash=0 / no-temporal-layers / no-open-gop / min-keyint=1 / keyint=250 / gop-lookahead=0 / bframes=8 / b-adapt=2 / b-pyramid / bframe-bias=0 / rc-lookahead=100 / lookahead-slices=0 / NTMzNTQ=uuDQuD2mJt9fsCf / scenecut=40 / no-hist-scenecut / radl=0 / no-splice / no-intra-refresh / ctu=32 / min-cu-size=8 / no-rect / no-amp / max-tu-size=32 / tu-inter-depth=4 / tu-intra-depth=4 / limit-tu=0 / rdoq-level=2 / dynamic-rd=0.00 / no-ssim-rd / signhide / tskip / nr-intra=0 / nr-inter=0 / no-constrained-intra / strong-intra-smoothing / max-merge=5 / limit-refs=0 / no-limit-modes / me=3 / subme=7 / merange=57 / temporal-mvp / no-frame-dup / no-hme / weightp / weightb / no-analyze-src-pics / deblock=-3:-3 / no-sao / no-sao-non-deblock / rd=4 / selective-sao=0 / no-early-skip / no-rskip / no-fast-intra / no-tskip-fast / no-cu-lossless / b-intra / no-splitrd-skip / rdpenalty=0 / psy-rd=1.50 / psy-rdoq=1.00 / no-rd-refine / no-lossless / cbqpoffs=-2 / crqpoffs=-2 / rc=crf / crf=21.0 / qcomp=0.65 / qpstep=4 / stats-write=0 / stats-read=0 / vbv-maxrate=160000 / vbv-bufsize=160000 / vbv-init=0.9 / min-vbv-fullness=50.0 / max-vbv-fullness=80.0 / crf-max=0.0 / crf-min=0.0 / ipratio=1.30 / pbratio=1.20 / aq-mode=1 / aq-strength=1.00 / cutree / zone-count=0 / no-strict-cbr / qg-size=8 / no-rc-grain / qpmax=69 / qpmin=0 / no-const-vbv / sar=0 / overscan=0 / videoformat=5 / range=0 / colorprim=1 / transfer=1 / colormatrix=1 / chromaloc=0 / display-window=0 / cll=0,0 / min-luma=0 / max-luma=1023 / log2-max-poc-lsb=8 / vui-timing-info / vui-hrd-info / slices=1 / no-opt-qp-pps / no-opt-ref-list-length-pps / no-multi-pass-opt-rps / scenecut-bias=0.05 / hist-threshold=0.03 / no-opt-cu-delta-qp / no-aq-motion / no-hdr10 / no-hdr10-opt / no-dhdr10-opt / no-idr-recovery-sei / analysis-reuse-level=0 / analysis-save-reuse-level=0 / analysis-load-reuse-level=0 / scale-factor=0 / refine-intra=0 / refine-inter=0 / refine-mv=1 / refine-ctu-distortion=0 / no-limit-sao / ctu-info=0 / no-lowpass-dct / refine-analysis-type=0 / copy-pic=1 / max-ausize-factor=1.0 / no-dynamic-refine / no-single-sei / no-hevc-aq / no-svt / no-field / qp-adaptation-range=1.00 / scenecut-aware-qp=0conformance-window-offsets / right=0 / bottom=0 / NTMzNTQ= / decoder-max-rate=0 / no-vbv-live-multi-pass

  36. Default : Yes

  37. Forced : No

  38. Color range : Limited

  39. Color primaries : BT.709

  40. Transfer characteristics : BT.709

  41. Matrix coefficients : BT.709


  42. Audio #1

  43. ID : 2

  44. Format : E-AC-3

  45. Format/Info : Enhanced AC-3

  46. Commercial name : Dolby Digital Plus

  47. Codec ID : A_EAC3

  48. Duration : 2 h 0 min

  49. Bit rate mode : Constant

  50. Bit rate : 1 023 kb/s

  51. Channel(s) : 6 channels

  52. Channel layout : L R C LFE Ls Rs

  53. Sampling rate : 48.0 kHz

  54. Frame rate : 93.750 FPS (512 SPF)

  55. Compression mode : Lossy

  56. Stream size : 879 MiB (13%)

  57. Language : English

  58. Service kind : Complete Main

  59. Default : Yes

  60. Forced : No


  61. Audio #2

  62. ID : 3

  63. Format : Opus

  64. Codec ID : A_OPUS

  65. Duration : 2 h 0 min

  66. Bit rate : 69.5 kb/s

  67. Channel(s) : 2 channels

  68. Channel layout : L R

  69. Sampling rate : 48.0 kHz

  70. Frame rate : 50.000 FPS (960 SPF)

  71. Compression mode : Lossy

  72. Stream size : 59.8 MiB (1%)

  73. Title : Commentary by Director Cary Joji Fukunaga

  74. Writing library : opusenc from opus-tools 0.2-3-gf5f571b

  75. Language : English

  76. Default : No

  77. Forced : No

  78. ENCODER_OPTIONS : --bitrate 70


  79. Text #1

  80. ID : 4

  81. Format : PGS

  82. Muxing mode : zlib

  83. Codec ID : S_HDMV/PGS

  84. Codec ID/Info : Picture based subtitle format used on BDs/HD-DVDs

  85. Duration : 1 h 53 min

  86. Bit rate : 38.9 kb/s

  87. Count of elements : 2464

  88. Stream size : 31.5 MiB (0%)

  89. Title : chs&eng

  90. Language : Chinese

  91. Default : Yes

  92. Forced : No


  93. Text #2

  94. ID : 5

  95. Format : PGS

  96. Muxing mode : zlib

  97. Codec ID : S_HDMV/PGS

  98. Codec ID/Info : Picture based subtitle format used on BDs/HD-DVDs

  99. Duration : 1 h 53 min

  100. Bit rate : 40.6 kb/s

  101. Count of elements : 2464

  102. Stream size : 32.9 MiB (0%)

  103. Title : cht&eng

  104. Language : Chinese

  105. Default : Yes

  106. Forced : No


  107. Text #3

  108. ID : 6

  109. Format : PGS

  110. Muxing mode : zlib

  111. Codec ID : S_HDMV/PGS

  112. Codec ID/Info : Picture based subtitle format used on BDs/HD-DVDs

  113. Duration : 1 h 53 min

  114. Bit rate : 34.3 kb/s

  115. Count of elements : 2437

  116. Stream size : 27.8 MiB (0%)

  117. Title : Traditional

  118. Language : Chinese

  119. Default : Yes

  120. Forced : No


  121. Text #4

  122. ID : 7

  123. Format : PGS

  124. Muxing mode : zlib

  125. Codec ID : S_HDMV/PGS

  126. Codec ID/Info : Picture based subtitle format used on BDs/HD-DVDs

  127. Duration : 1 h 53 min

  128. Bit rate : 30.8 kb/s

  129. Count of elements : 2437

  130. Stream size : 25.0 MiB (0%)

  131. Title : Simplified

  132. Language : Chinese

  133. Default : Yes

  134. Forced : No


  135. Text #5

  136. ID : 8

  137. Format : UTF-8

  138. Codec ID : S_TEXT/UTF8

  139. Codec ID/Info : UTF-8 Plain Text

  140. Duration : 1 h 54 min

  141. Bit rate : 39 b/s

  142. Count of elements : 1198

  143. Stream size : 33.1 KiB (0%)

  144. Title : CHS(srt)

  145. Language : Chinese

  146. Default : Yes

  147. Forced : No


  148. Text #6

  149. ID : 9

  150. Format : PGS

  151. Muxing mode : zlib

  152. Codec ID : S_HDMV/PGS

  153. Codec ID/Info : Picture based subtitle format used on BDs/HD-DVDs

  154. Duration : 1 h 53 min

  155. Bit rate : 21.9 kb/s

  156. Count of elements : 2464

  157. Stream size : 17.7 MiB (0%)

  158. Title : CHS(HDH)

  159. Language : Chinese

  160. Default : No

  161. Forced : No


  162. Text #7

  163. ID : 10

  164. Format : PGS

  165. Muxing mode : zlib

  166. Codec ID : S_HDMV/PGS

  167. Codec ID/Info : Picture based subtitle format used on BDs/HD-DVDs

  168. Duration : 1 h 53 min

  169. Bit rate : 24.6 kb/s

  170. Count of elements : 2464

  171. Stream size : 19.9 MiB (0%)

  172. Title : CHT(HDH)

  173. Language : Chinese

  174. Default : No

  175. Forced : No


  176. Text #8

  177. ID : 11

  178. Format : PGS

  179. Muxing mode : zlib

  180. Codec ID : S_HDMV/PGS

  181. Codec ID/Info : Picture based subtitle format used on BDs/HD-DVDs

  182. Duration : 1 h 56 min

  183. Bit rate : 23.9 kb/s

  184. Count of elements : 2280

  185. Stream size : 19.9 MiB (0%)

  186. Language : French

  187. Default : No

  188. Forced : No


  189. Text #9

  190. ID : 12

  191. Format : PGS

  192. Muxing mode : zlib

  193. Codec ID : S_HDMV/PGS

  194. Codec ID/Info : Picture based subtitle format used on BDs/HD-DVDs

  195. Duration : 1 h 50 min

  196. Bit rate : 43.6 kb/s

  197. Count of elements : 1974

  198. Stream size : 34.4 MiB (1%)

  199. Language : German

  200. Default : No

  201. Forced : No


  202. Text #10

  203. ID : 13

  204. Format : PGS

  205. Muxing mode : zlib

  206. Codec ID : S_HDMV/PGS

  207. Codec ID/Info : Picture based subtitle format used on BDs/HD-DVDs

  208. Duration : 1 h 50 min

  209. Bit rate : 27.4 kb/s

  210. Count of elements : 2180

  211. Stream size : 21.6 MiB (0%)

  212. Title : Latin American

  213. Language : Spanish

  214. Default : No

  215. Forced : No


  216. Text #11

  217. ID : 14

  218. Format : PGS

  219. Muxing mode : zlib

  220. Codec ID : S_HDMV/PGS

  221. Codec ID/Info : Picture based subtitle format used on BDs/HD-DVDs

  222. Duration : 1 h 53 min

  223. Bit rate : 31.2 kb/s

  224. Count of elements : 2622

  225. Stream size : 25.3 MiB (0%)

  226. Title : SDH

  227. Language : English

  228. Default : No

  229. Forced : No


  230. Text #12

  231. ID : 15

  232. Format : PGS

  233. Muxing mode : zlib

  234. Codec ID : S_HDMV/PGS

  235. Codec ID/Info : Picture based subtitle format used on BDs/HD-DVDs

  236. Duration : 1 h 59 min

  237. Bit rate : 30.7 kb/s

  238. Count of elements : 3118

  239. Stream size : 26.3 MiB (0%)

  240. Title : SDH

  241. Language : French

  242. Default : No

  243. Forced : No


  244. Text #13

  245. ID : 16

  246. Format : PGS

  247. Muxing mode : zlib

  248. Codec ID : S_HDMV/PGS

  249. Codec ID/Info : Picture based subtitle format used on BDs/HD-DVDs

  250. Duration : 1 h 59 min

  251. Bit rate : 50.3 kb/s

  252. Count of elements : 3550

  253. Stream size : 43.1 MiB (1%)

  254. Title : Commentary by Director Cary Joji Fukunaga

  255. Language : French

  256. Default : No

  257. Forced : No


  258. Menu

  259. 00:00:00.000 : en:Chapter 1

  260. 00:05:12.062 : en:Chapter 2

  261. 00:10:18.743 : en:Chapter 3

  262. 00:14:05.511 : en:Chapter 4

  263. 00:20:10.292 : en:Chapter 5

  264. 00:26:53.654 : en:Chapter 6

  265. 00:32:25.986 : en:Chapter 7

  266. 00:39:16.563 : en:Chapter 8

  267. 00:47:26.343 : en:Chapter 9

  268. 00:52:20.471 : en:Chapter 10

  269. 01:01:29.019 : en:Chapter 11

  270. 01:05:18.915 : en:Chapter 12

  271. 01:11:30.786 : en:Chapter 13

  272. 01:14:13.157 : en:Chapter 14

  273. 01:21:07.237 : en:Chapter 15

  274. 01:28:53.119 : en:Chapter 16

  275. 01:36:10.473 : en:Chapter 17

  276. 01:42:25.139 : en:Chapter 18

  277. 01:47:25.147 : en:Chapter 19

  278. 01:54:19.811 : en:Chapter 20




复制代码



文件下载


除非特别注明,本文『简爱[简繁双语字幕].Jane.Eyre.2011.Hybrid.BluRay.1080p.x265.10bit.DDP5.1.MNHD-btbt9527.com 6.53GB』来源于互联网机器人自动抓取,非本站原创。 浮游电影网不对本文拥有版权,如有侵犯,请联系邮箱:fuyouu#yandex.com[#换成@]投诉。我们会在15个工作日内删除。 但烦请转载时请标明出处:“本文转载于『浮游电影网』,原文地址:https://www.fuyouu.com/19192.html

评论吧骚年!

发表你的见解   

昵称*

E-mail*(建议输入,以便收到博主回复的提示邮件)

验证码*

您可以使用eMule或eMule Mod(Windows)、aMule(Win、Linux、Mac)等软件下载eD2k链接。。
eMule收藏集(.emulecollection)文件是您选中的所有链接的列表文件。eMule可以直接下载它们。
按住SHIFT键选择可以选中多个选择框。
可用文件名和大小选择器来选择文件。
文件名选择器帮您根据文件名称或后缀来选择文件。不分大小写。
符号使用:
和:空格( )、+
不包含:-
或:|
转义:一对英文引号("");
匹配开头:^
匹配结尾:$
例如:
选中所有名称中包含有“eMule”或“0.49c”字眼,但不包含有“exe”字眼的:emule|0.49c -exe
选中所有名称的开头是“eMule”,结尾是“0.49c”的:^emule 0.49c$
选中所有名称中带有“eMule 0.49c”的(必须是“eMule 0.49c”,中间没有别的字符,不能是“eMule fake 0.49c”),需要转义:"emule 0.49c"
大小选择器帮您根据文件大小选择文件。