当前位置: 首页 >> 欧美电影 >> 十万火急[中文字幕/特效字幕].Daylight.1996.BluRay.1080p.TrueHD.7.1.2Audio.x265.10bit-btbt9527.com 11.52GB >> 正文

十万火急[中文字幕/特效字幕].Daylight.1996.BluRay.1080p.TrueHD.7.1.2Audio.x265.10bit-btbt9527.com 11.52GB

2021年12月08日 10:07:38     电影发布:来源于网络     电影分类:欧美电影     评论(0)    

十万火急[中文字幕/特效字幕].Daylight.1996.BluRay.1080p.TrueHD.7.1.2Audio.x265.10bit btbt9527.com 11.52GB 灾难片 冒险片 动作片 欧美电影  第1张

◎译 名 十万火急 / 龙出生天(港)

◎片 名 Daylight

◎年 代 1996

◎产 地 美国

◎类 别 动作 / 冒险 / 灾难

◎语 言 英语

◎上映日期 1996-12-06

◎IMDb链接 https://www.imdb.com/title/tt0116040/

◎豆瓣评分 7.3/10 (5611人评价)

◎豆瓣链接 https://movie.douban.com/subject/1292834/

◎片 长 114分钟

◎导 演 罗伯·科恩 Rob Cohen (id:1032129)

◎编 剧 莱斯利·博希姆 Leslie Bohem (id:1328357)

◎演 员 西尔维斯特·史泰龙 Sylvester Stallone (id:1047996)

艾米·布伦尼曼 Amy Brenneman (id:1010591)

维果·莫腾森 Viggo Mortensen (id:1054520)

丹·哈达亚 Dan Hedaya (id:1025245)

杰伊·桑德斯 Jay O. Sanders (id:1002769)

凯伦·杨 Karen Young (id:1027941)

克莱尔·布鲁姆 Claire Bloom (id:1007058)

瓦妮莎·贝尔·卡洛威 Vanessa Bell Calloway (id:1066980)

雷诺里·圣地亚哥 Renoly Santiago (id:1144875)

科林·福克斯 Colin Fox (id:1087129)

丹妮尔·哈丽丝 Danielle Harris (id:1019025)

Trina McGee Trina McGee (id:1055516)

塞奇·史泰龙 Sage Stallone (id:1044981)

乔·安德森 Jo Anderson (id:1056640)

马克·罗斯顿 Mark Rolston (id:1054892)

罗丝玛丽·福赛思 Rosemary Forsyth (id:1088181)

王洛勇 Luoyong Wang (id:1274819)

巴瑞·纽曼 Barry Newman (id:1041253)

斯坦·肖 Stan Shaw (id:1145584)

Mark Chadwick Mark Chadwick (id:1280383)

李·奥克斯 Lee Oakes (id:1326699)

沙基纳·贾弗里 Sakina Jaffrey (id:1104745)

艾伯特·麦克林 Albert Macklin (id:1122270)

约瑟夫·劳格诺 Joseph Ragno (id:1343306)

内斯特·塞拉诺 Nestor Serrano (id:1145525)

约翰·利斯 John Lees (id:1109920)

Stephen James Stephen James (id:1110768)

伊西斯·马森登 Isis Mussenden (id:1019610)

罗伯·科恩 Rob Cohen (id:1032129)

帕梅拉·佩林 Pamela Perrine (id:1446100)

Dale Resteghini Dale Resteghini (id:1051415)

约翰·戴维斯 John Davis (id:1281912)

兰迪·艾德尔曼 Randy Edelman (id:1019213)

大卫·艾格比 David Eggby (id:1283033)

玛格莉·辛姆金 Margery Simkin (id:1297613)

Mark Zuelzke Mark Zuelzke (id:1301784)

玛丽亚-特雷莎·巴巴索 Maria-Teresa Barbasso (id:1277870)

本哈明·费勒南戴斯 Benjamín Fernández (id:1283598)

Pier Luigi Basile Pier Luigi Basile (id:1278043)

Marco Trentini Marco Trentini (id:1299507)

Thomas Casterline Thomas Casterline (id:1280272)

Mauro Menconi Mauro Menconi (id:1291821)

Chitra F. Mojtabai Chitra F. Mojtabai (id:1276246)

Richard O. Helmer Richard O. Helmer (id:1286398)

肯尼斯·史密斯 Kenneth Smith (id:1297900)

杰弗·海隆 Geoff Heron (id:1286513)

爱德华·赫希 Edward Hirsh (id:1286690)

亚历克斯·杰格尔 Alex Jaeger (id:1287564)

Marshall Richard Krasser Marshall Richard Krasser (id:1288991)

Lynn Ledgerwood Lynn Ledgerwood (id:1289637)

乔·莱特瑞 Joe Letteri (id:1289854)

格兰特·麦丘恩 Grant McCune (id:1291510)

Jim Morris Jim Morris (id:1292540)

Patrick T. Myers Patrick T. Myers (id:1292827)

Eddie Pasquarello Eddie Pasquarello (id:1294043)

Richard Patterson Richard Patterson (id:1294096)

洛尔恩·彼得森 Lorne Peterson (id:1294386)

Denise Ream Denise Ream (id:1295324)

Timothy Greenwood Timothy Greenwood (id:1285411)

布莱恩·格南德 Brian Gernand (id:1284742)

Dobbie Schiff Dobbie Schiff (id:1302632)

David S. Williams Jr. David S. Williams Jr. (id:1300940)

Mike Wassel Mike Wassel (id:1300479)

罗恩·布朗 Ronn Brown (id:1276400)

Jason Brackett Jason Brackett (id:1279138)

芭芭拉·布伦南 Barbara Brennan (id:1279246)

Bill Taylor Bill Taylor (id:1298968)

史蒂夫·沃尔顿 Steve Walton (id:1300376)

Fish Essenfeld Fish Essenfeld (id:1283299)

斯科特·法勒 Scott Farrar (id:1283472)

罗伯特·斯特罗姆伯格 Robert Stromberg (id:1298560)

詹姆斯·D·施瓦姆 James D. Schwalm (id:1297006)

◎标 签 灾难 / 美国 / 史泰龙 / 动作 / 1996 / 美国电影 / 十万火急 / 冒险

◎简 介

这天无数往来于曼哈顿与新泽西州的海底隧道的美国民众像往常一样在隧道内抱怨着交通堵塞,岂料死神正在步步逼近。隧道内一辆装满化学物品的卡车意外发生了爆炸,强大的冲击力使得隧道坍塌了,出入口都被堵死了。此时,隧道内一片火海,弥漫着有毒烟雾,河水也在不断涌进,无数无辜的市民们能做似乎只有等死。

救援队其实早到了,然而隧道被封,里面的有毒烟雾肆虐,救援人员迟迟不敢贸然动手。十万火急之际,出租车司机、前救援队队员骆查(西尔维斯特?史泰龙 Sylvester Stallone 饰)挺身而出了。他从通风口爬进了隧道,他稳定住了隧道内众人的情绪,带领大家开始了生死逃亡。

◎获奖情况 (共1项)

第69届奥斯卡金像奖 (1997)

最佳音效剪辑(提名)

  1. ##### MediaInfo ######

  2. General

  3. Unique ID : 16563088197152926011760019893363999710 (0xC75EF4BF9B2C7B7EF19D9FE8E3D03DE)

  4. Complete name : [email protected]VHome.mkv

  5. Format : Matroska

  6. Format version : Version 4

  7. File size : 11.5 GiB

  8. Duration : 1 h 55 min

  9. Overall bit rate mode : Variable

  10. Overall bit rate : 14.3 Mb/s

  11. Encoded date : UTC 2021-12-05 19:44:25

  12. Writing application : mkvmerge v60.0.0 ('Are We Copies?') 64-bit

  13. Writing library : libebml v1.4.2 + libmatroska v1.6.4


  14. Video

  15. ID : 1

  16. Format : HEVC

  17. Format/Info : High Efficiency Video Coding

  18. Format profile : Main [email protected]@Main

  19. Codec ID : V_MPEGH/ISO/HEVC

  20. Duration : 1 h 54 min

  21. Bit rate : 9 392 kb/s

  22. Width : 1 920 pixels

  23. Height : 1 040 pixels

  24. Display aspect ratio : 1.85:1

  25. Frame rate mode : Constant

  26. Frame rate : 23.976 (24000/1001/53354) FPS

  27. Color space : YUV

  28. Chroma subsampling : 4:2:0

  29. Bit depth : 10 bits

  30. Bits/(Pixel*Frame) : 0.196

  31. Stream size : 7.51 GiB (65%)

  32. Writing library : x265 3.5+11-c8905a745:[Windows][MSVC 1929][64 bit] 10bit

  33. Encoding settings : cpuid=533541111039 / frame-threads=4 / numa-pools=16 / wpp / no-pmode / pme / no-psnr / no-ssim / log-level=2 / input-csp=1 / input-res=1920x1040 / interlace=0 / total-frames=0 / level-idc=0 / high-tier=1 / uhd-bd=0 / ref=6 / no-allow-non-conformance / repeat-headers / annexb / no-aud / no-eob / no-eos / no-hrd / info / hash=0 / no-temporal-layers / no-open-gop / min-keyint=23 / keyint=250 / gop-lookahead=0 / bframes=8 / b-adapt=2 / b-pyramid / bframe-bias=0 / rc-lookahead=57 / lookahead-slices=6 / NTMzNTQ=uuDQuD2mJt9fsCf / scenecut=40 / no-hist-scenecut / radl=0 / no-splice / no-intra-refresh / ctu=64 / min-cu-size=8 / no-rect / no-amp / max-tu-size=32 / tu-inter-depth=1 / tu-intra-depth=1 / limit-tu=0 / rdoq-level=0 / dynamic-rd=0.00 / no-ssim-rd / signhide / no-tskip / nr-intra=0 / nr-inter=0 / no-constrained-intra / no-strong-intra-smoothing / max-merge=3 / limit-refs=1 / no-limit-modes / me=2 / subme=7 / merange=57 / temporal-mvp / no-frame-dup / no-hme / weightp / weightb / no-analyze-src-pics / deblock=0:0 / sao / no-sao-non-deblock / rd=4 / selective-sao=4 / early-skip / rskip / no-fast-intra / no-tskip-fast / no-cu-lossless / b-intra / no-splitrd-skip / rdpenalty=0 / psy-rd=2.00 / psy-rdoq=0.00 / no-rd-refine / no-lossless / cbqpoffs=0 / crqpoffs=0 / rc=crf / crf=16.0 / qcomp=0.60 / qpstep=4 / stats-write=0 / stats-read=0 / ipratio=1.40 / pbratio=1.30 / aq-mode=3 / aq-strength=1.00 / cutree / zone-count=0 / no-strict-cbr / qg-size=32 / no-rc-grain / qpmax=69 / qpmin=0 / no-const-vbv / sar=0 / overscan=0 / videoformat=5 / range=0 / colorprim=2 / transfer=2 / colormatrix=2 / chromaloc=0 / display-window=0 / cll=0,0 / min-luma=0 / max-luma=1023 / log2-max-poc-lsb=8 / vui-timing-info / vui-hrd-info / slices=1 / no-opt-qp-pps / no-opt-ref-list-length-pps / no-multi-pass-opt-rps / scenecut-bias=0.05 / hist-threshold=0.03 / no-opt-cu-delta-qp / aq-motion / no-hdr10 / no-hdr10-opt / no-dhdr10-opt / no-idr-recovery-sei / analysis-reuse-level=0 / analysis-save-reuse-level=0 / analysis-load-reuse-level=0 / scale-factor=0 / refine-intra=0 / refine-inter=0 / refine-mv=1 / refine-ctu-distortion=0 / no-limit-sao / ctu-info=0 / no-lowpass-dct / refine-analysis-type=0 / copy-pic=1 / max-ausize-factor=1.0 / no-dynamic-refine / no-single-sei / no-hevc-aq / no-svt / no-field / qp-adaptation-range=1.00 / scenecut-aware-qp=0conformance-window-offsets / right=0 / bottom=0 / NTMzNTQ= / decoder-max-rate=0 / no-vbv-live-multi-pass

  34. Default : Yes

  35. Forced : No


  36. Audio #1

  37. ID : 2

  38. Format : MLP FBA 16-ch

  39. Format/Info : Meridian Lossless Packing FBA with 16-channel presentation

  40. Commercial name : Dolby TrueHD with Dolby Atmos

  41. Codec ID : A_TRUEHD

  42. Duration : 1 h 55 min

  43. Bit rate mode : Variable

  44. Bit rate : 4 106 kb/s

  45. Maximum bit rate : 6 657 kb/s

  46. Channel(s) : 8 channels

  47. Channel layout : L R C LFE Ls Rs Lb Rb

  48. Sampling rate : 48.0 kHz

  49. Frame rate : 1 200.000 FPS (40 SPF)

  50. Compression mode : Lossless

  51. Delay relative to video : 417 ms

  52. Stream size : 3.32 GiB (29%)

  53. Default : Yes

  54. Forced : No

  55. Number of dynamic objects : 13

  56. Bed channel count : 1 channel

  57. Bed channel configuration : LFE


  58. Audio #2

  59. ID : 3

  60. Format : AC-3

  61. Format/Info : Audio Coding 3

  62. Commercial name : Dolby Digital

  63. Codec ID : A_AC3

  64. Duration : 1 h 55 min

  65. Bit rate mode : Constant

  66. Bit rate : 640 kb/s

  67. Channel(s) : 6 channels

  68. Channel layout : L R C LFE Ls Rs

  69. Sampling rate : 48.0 kHz

  70. Frame rate : 31.250 FPS (1536 SPF)

  71. Compression mode : Lossy

  72. Delay relative to video : 417 ms

  73. Stream size : 529 MiB (4%)

  74. Service kind : Complete Main

  75. Default : Yes

  76. Forced : No


  77. Text #1

  78. ID : 4

  79. Format : PGS

  80. Muxing mode : zlib

  81. Codec ID : S_HDMV/PGS

  82. Codec ID/Info : Picture based subtitle format used on BDs/HD-DVDs

  83. Duration : 1 h 46 min

  84. Bit rate : 36.8 kb/s

  85. Count of elements : 2426

  86. Stream size : 28.1 MiB (0%)

  87. Title : 英语

  88. Language : English

  89. Default : Yes

  90. Forced : No


  91. Text #2

  92. ID : 5

  93. Format : PGS

  94. Muxing mode : zlib

  95. Codec ID : S_HDMV/PGS

  96. Codec ID/Info : Picture based subtitle format used on BDs/HD-DVDs

  97. Duration : 1 h 53 min

  98. Bit rate : 66.8 kb/s

  99. Count of elements : 4109

  100. Stream size : 54.2 MiB (0%)

  101. Title : 简中

  102. Language : Chinese

  103. Default : Yes

  104. Forced : No


  105. Text #3

  106. ID : 6

  107. Format : PGS

  108. Muxing mode : zlib

  109. Codec ID : S_HDMV/PGS

  110. Codec ID/Info : Picture based subtitle format used on BDs/HD-DVDs

  111. Duration : 1 h 53 min

  112. Bit rate : 67.5 kb/s

  113. Count of elements : 4109

  114. Stream size : 54.8 MiB (0%)

  115. Title : 繁中

  116. Language : Chinese

  117. Default : Yes

  118. Forced : No


  119. Text #4

  120. ID : 7

  121. Format : PGS

  122. Muxing mode : zlib

  123. Codec ID : S_HDMV/PGS

  124. Codec ID/Info : Picture based subtitle format used on BDs/HD-DVDs

  125. Duration : 1 h 53 min

  126. Bit rate : 87.0 kb/s

  127. Count of elements : 4109

  128. Stream size : 70.7 MiB (1%)

  129. Title : 简英

  130. Language : Chinese

  131. Default : Yes

  132. Forced : No


  133. Text #5

  134. ID : 8

  135. Format : PGS

  136. Muxing mode : zlib

  137. Codec ID : S_HDMV/PGS

  138. Codec ID/Info : Picture based subtitle format used on BDs/HD-DVDs

  139. Duration : 1 h 53 min

  140. Bit rate : 87.8 kb/s

  141. Count of elements : 4109

  142. Stream size : 71.3 MiB (1%)

  143. Title : 繁英

  144. Language : Chinese

  145. Default : Yes

  146. Forced : No




复制代码



文件下载


除非特别注明,本文『十万火急[中文字幕/特效字幕].Daylight.1996.BluRay.1080p.TrueHD.7.1.2Audio.x265.10bit-btbt9527.com 11.52GB』来源于互联网机器人自动抓取,非本站原创。 浮游电影网不对本文拥有版权,如有侵犯,请联系邮箱:fuyouu#yandex.com[#换成@]投诉。我们会在15个工作日内删除。 但烦请转载时请标明出处:“本文转载于『浮游电影网』,原文地址:https://www.fuyouu.com/19189.html

评论吧骚年!

发表你的见解   

昵称*

E-mail*(建议输入,以便收到博主回复的提示邮件)

验证码*

您可以使用eMule或eMule Mod(Windows)、aMule(Win、Linux、Mac)等软件下载eD2k链接。。
eMule收藏集(.emulecollection)文件是您选中的所有链接的列表文件。eMule可以直接下载它们。
按住SHIFT键选择可以选中多个选择框。
可用文件名和大小选择器来选择文件。
文件名选择器帮您根据文件名称或后缀来选择文件。不分大小写。
符号使用:
和:空格( )、+
不包含:-
或:|
转义:一对英文引号("");
匹配开头:^
匹配结尾:$
例如:
选中所有名称中包含有“eMule”或“0.49c”字眼,但不包含有“exe”字眼的:emule|0.49c -exe
选中所有名称的开头是“eMule”,结尾是“0.49c”的:^emule 0.49c$
选中所有名称中带有“eMule 0.49c”的(必须是“eMule 0.49c”,中间没有别的字符,不能是“eMule fake 0.49c”),需要转义:"emule 0.49c"
大小选择器帮您根据文件大小选择文件。