当前位置: 首页 >> 日韩电影 >> 猪堕井的那天[中文字幕].The.Day.a.Pig.Fell.Into.the.Well.1996.BluRay.1080p.x265.10bit.FLAC.MNHD-btbt9527.com >> 正文

猪堕井的那天[中文字幕].The.Day.a.Pig.Fell.Into.the.Well.1996.BluRay.1080p.x265.10bit.FLAC.MNHD-btbt9527.com

2021年12月08日 10:04:46     电影发布:来源于网络     电影分类:日韩电影     评论(0)    

猪堕井的那天[中文字幕].The.Day.a.Pig.Fell.Into.the.Well.1996.BluRay.1080p.x265.10bit.FLAC.MNHD btbt9527.com 爱情片 剧情片 日韩电影  第1张

◎译 名 猪堕井的那天 / The Day a Pig Fell Into the Well

◎片 名 ?????????

◎年 代 1996

◎产 地 韩国

◎类 别 剧情 / 爱情

◎语 言 韩语

◎上映日期 1996-05-04(韩国)

◎IMDb链接 https://www.imdb.com/title/tt0116005/

◎豆瓣评分 7.3/10 (4453人评价)

◎豆瓣链接 https://movie.douban.com/subject/1308027/

◎片 长 115分钟

◎导 演 洪常秀 Sang-soo Hong (id:1041528)

◎编 剧 洪常秀 Sang-soo Hong (id:1041528)

◎演 员 金义城 Eui-sung Kim (id:1325012)

赵银淑 Eun-sook Cho (id:1052783)

李应敬 Eung-kyung Lee (id:1106701)

方银姬 Eun-hee Bang (id:1065852)

宋康昊 Kang-ho Song (id:1031238)

孙敏锡 Min-seok Son (id:1456520)

朴贵顺 Kwi-soon Park (id:1389470)

金正碧 Jung-pal Kim (id:1380175)

Sun-mi Myeong Sun-mi Myeong (id:1136703)

朴曲之 Gok-ji Park (id:1293957)

◎标 签 洪尚秀 / 韩国 / 韩国电影 / 1996 / 爱情 / 宋康昊 / 剧情 / 1990s

◎简 介

写小说的金孝燮从未真真正正出版过一本象样的书,一次与人争吵后被判入狱,深感自卑的他不断被外界批评为三流作家,生活也很窘迫。可是他却爱上一个已婚女人。而另一个未婚女子深深地爱着这个小说家。未婚女子对作家的爱是毫无条件的,她以前是出版社的编辑,后来在电影院售票,并 同时打几份工。他与作家约会时付咖啡钱,心甘情愿地借钱给作家,为他修改书稿。在作家三十五岁生日时,她带着蛋糕和礼物来到作家的住处想给他一个惊喜,作家却责怪未婚女子来之前不给他打电话。这时,已婚女人从作家的屋里冲出,作家急忙追赶,未婚女子告诉作家,她已做好为他奉献一生的准备,作家明确地告诉未婚女子,他深切地爱着这个已婚的女人。在街上,他对未婚女子大打出手,发泄着的自己的情绪,躲在一旁的未婚女子的男同事把这一幕尽收眼底,对未婚女子表达了爱意,失落的未婚女子与这个男同事发生了关系。

  1. ##### MediaInfo ######

  2. General

  3. Unique ID : 48123728690887254137586116245330244701 (0x24344B02D7DFD4DC2C99508C4642B45D)

  4. Complete name : The.Day.a.Pig.[email protected]MKVHome.mkv

  5. Format : Matroska

  6. Format version : Version 4

  7. File size : 3.87 GiB

  8. Duration : 1 h 56 min

  9. Overall bit rate mode : Variable

  10. Overall bit rate : 4 773 kb/s

  11. Movie name : The Day a Pig Fell Into the Well 1996 BluRay 1080p - FRDS

  12. Encoded date : UTC 2021-12-05 11:22:34

  13. Writing application : mkvmerge v63.0.0 ('Everything') 64-bit

  14. Writing library : libebml v1.4.2 + libmatroska v1.6.4


  15. Video

  16. ID : 1

  17. Format : HEVC

  18. Format/Info : High Efficiency Video Coding

  19. Format profile : Main [email protected]@Main

  20. Codec ID : V_MPEGH/ISO/HEVC

  21. Duration : 1 h 56 min

  22. Bit rate : 4 292 kb/s

  23. Width : 1 920 pixels

  24. Height : 1 080 pixels

  25. Display aspect ratio : 16:9

  26. Frame rate mode : Constant

  27. Frame rate : 23.976 (24000/1001/53354) FPS

  28. Color space : YUV

  29. Chroma subsampling : 4:2:0

  30. Bit depth : 10 bits

  31. Bits/(Pixel*Frame) : 0.086

  32. Stream size : 3.48 GiB (90%)

  33. Writing library : x265 2.4+75-80c23559084c:[Windows][GCC 7.1.0][64 bit] 10bit

  34. Encoding settings : cpuid=533541173503 / frame-threads=6 / numa-pools=36 / wpp / no-pmode / no-pme / no-psnr / no-ssim / log-level=2 / csvfn=D:\bdrip\pigfell.log / csv-log-level=0 / input-csp=1 / input-res=1920x1080 / interlace=0 / total-frames=167013 / level-idc=0 / high-tier=1 / uhd-bd=0 / ref=5 / no-allow-non-conformance / no-repeat-headers / annexb / no-aud / no-hrd / info / hash=0 / no-temporal-layers / no-open-gop / min-keyint=1 / keyint=360 / bframes=8 / b-adapt=2 / b-pyramid / bframe-bias=0 / rc-lookahead=60 / lookahead-slices=4 / NTMzNTQ=uuDQuD2mJt9fsCf / scenecut=40 / no-intra-refresh / ctu=32 / min-cu-size=8 / no-rect / no-amp / max-tu-size=16 / tu-inter-depth=2 / tu-intra-depth=2 / limit-tu=4 / rdoq-level=2 / dynamic-rd=0.00 / ssim-rd / signhide / no-tskip / nr-intra=0 / nr-inter=0 / no-constrained-intra / no-strong-intra-smoothing / max-merge=3 / limit-refs=2 / limit-modes / me=3 / subme=5 / merange=25 / temporal-mvp / weightp / weightb / no-analyze-src-pics / deblock=-1:-1 / no-sao / no-sao-non-deblock / rd=4 / no-early-skip / no-rskip / no-fast-intra / no-tskip-fast / no-cu-lossless / b-intra / rdpenalty=1 / psy-rd=0.00 / psy-rdoq=5.00 / no-rd-refine / analysis-mode=0 / no-lossless / cbqpoffs=-2 / crqpoffs=-2 / rc=crf / crf=19.0 / qcomp=0.65 / qpstep=4 / stats-write=0 / stats-read=0 / ipratio=1.40 / pbratio=1.30 / aq-mode=2 / aq-strength=0.80 / cutree / zone-count=0 / no-strict-cbr / qg-size=16 / no-rc-grain / qpmax=69 / qpmin=0 / sar=0 / overscan=0 / videoformat=5 / range=0 / colorprim=1 / transfer=2 / colormatrix=2 / chromaloc=0 / display-window=0 / max-cll=0,0 / min-luma=0 / max-luma=1023 / log2-max-poc-lsb=8 / vui-timing-info / vui-hrd-info / slices=1 / opt-qp-pps / opt-ref-list-length-pps / no-multi-pass-opt-rps / scenecut-bias=0.05 / no-opt-cu-delta-qp / no-aq-motion / no-hdr / no-hdr-opt / no-dhdr10-opt / refine-level=5 / scale-factor=0 / refine-intra=0 / refine-inter=0 / refine-mv=0 / no-limit-sao / ctu-info=0

  35. Default : Yes

  36. Forced : No

  37. Color range : Limited

  38. Color primaries : BT.709


  39. Audio

  40. ID : 2

  41. Format : FLAC

  42. Format/Info : Free Lossless Audio Codec

  43. Codec ID : A_FLAC

  44. Duration : 1 h 56 min

  45. Bit rate mode : Variable

  46. Bit rate : 440 kb/s

  47. Channel(s) : 2 channels

  48. Channel layout : L R

  49. Sampling rate : 48.0 kHz

  50. Frame rate : 11.719 FPS (4096 SPF)

  51. Bit depth : 16 bits

  52. Compression mode : Lossless

  53. Stream size : 366 MiB (9%)

  54. Writing library : libFLAC 1.2.1 (UTC 2007-09-17)

  55. Language : Korean

  56. Default : Yes

  57. Forced : No


  58. Text #1

  59. ID : 3

  60. Format : PGS

  61. Muxing mode : zlib

  62. Codec ID : S_HDMV/PGS

  63. Codec ID/Info : Picture based subtitle format used on BDs/HD-DVDs

  64. Duration : 1 h 51 min

  65. Bit rate : 19.9 kb/s

  66. Count of elements : 1919

  67. Stream size : 15.8 MiB (0%)

  68. Language : Korean

  69. Default : Yes

  70. Forced : No


  71. Text #2

  72. ID : 4

  73. Format : PGS

  74. Muxing mode : zlib

  75. Codec ID : S_HDMV/PGS

  76. Codec ID/Info : Picture based subtitle format used on BDs/HD-DVDs

  77. Duration : 1 h 51 min

  78. Bit rate : 21.0 kb/s

  79. Count of elements : 1852

  80. Stream size : 16.7 MiB (0%)

  81. Language : English

  82. Default : No

  83. Forced : No


  84. Text #3

  85. ID : 5

  86. Format : PGS

  87. Muxing mode : zlib

  88. Codec ID : S_HDMV/PGS

  89. Codec ID/Info : Picture based subtitle format used on BDs/HD-DVDs

  90. Duration : 1 h 51 min

  91. Bit rate : 15.5 kb/s

  92. Count of elements : 1294

  93. Stream size : 12.3 MiB (0%)

  94. Title : CHS

  95. Language : Chinese

  96. Default : Yes

  97. Forced : No


  98. Text #4

  99. ID : 6

  100. Format : PGS

  101. Muxing mode : zlib

  102. Codec ID : S_HDMV/PGS

  103. Codec ID/Info : Picture based subtitle format used on BDs/HD-DVDs

  104. Duration : 1 h 51 min

  105. Bit rate : 16.1 kb/s

  106. Count of elements : 1294

  107. Stream size : 12.8 MiB (0%)

  108. Title : CHT

  109. Language : Chinese

  110. Default : Yes

  111. Forced : No


  112. Menu

  113. 00:00:00.000 : en:Chapter 01

  114. 00:02:15.135 : en:Chapter 02

  115. 00:08:37.099 : en:Chapter 03

  116. 00:16:44.545 : en:Chapter 04

  117. 00:22:58.126 : en:Chapter 05

  118. 00:36:38.571 : en:Chapter 06

  119. 00:46:09.308 : en:Chapter 07

  120. 00:56:56.871 : en:Chapter 08

  121. 01:02:58.775 : en:Chapter 09

  122. 01:14:09.027 : en:Chapter 10

  123. 01:18:32.958 : en:Chapter 11

  124. 01:22:25.148 : en:Chapter 12

  125. 01:29:38.581 : en:Chapter 13

  126. 01:37:15.412 : en:Chapter 14

  127. 01:44:03.362 : en:Chapter 15

  128. 01:54:34.576 : en:Chapter 16




复制代码



文件下载


除非特别注明,本文『猪堕井的那天[中文字幕].The.Day.a.Pig.Fell.Into.the.Well.1996.BluRay.1080p.x265.10bit.FLAC.MNHD-btbt9527.com』来源于互联网机器人自动抓取,非本站原创。 浮游电影网不对本文拥有版权,如有侵犯,请联系邮箱:fuyouu#yandex.com[#换成@]投诉。我们会在15个工作日内删除。 但烦请转载时请标明出处:“本文转载于『浮游电影网』,原文地址:https://www.fuyouu.com/19187.html

评论吧骚年!

发表你的见解   

昵称*

E-mail*(建议输入,以便收到博主回复的提示邮件)

验证码*

您可以使用eMule或eMule Mod(Windows)、aMule(Win、Linux、Mac)等软件下载eD2k链接。。
eMule收藏集(.emulecollection)文件是您选中的所有链接的列表文件。eMule可以直接下载它们。
按住SHIFT键选择可以选中多个选择框。
可用文件名和大小选择器来选择文件。
文件名选择器帮您根据文件名称或后缀来选择文件。不分大小写。
符号使用:
和:空格( )、+
不包含:-
或:|
转义:一对英文引号("");
匹配开头:^
匹配结尾:$
例如:
选中所有名称中包含有“eMule”或“0.49c”字眼,但不包含有“exe”字眼的:emule|0.49c -exe
选中所有名称的开头是“eMule”,结尾是“0.49c”的:^emule 0.49c$
选中所有名称中带有“eMule 0.49c”的(必须是“eMule 0.49c”,中间没有别的字符,不能是“eMule fake 0.49c”),需要转义:"emule 0.49c"
大小选择器帮您根据文件大小选择文件。