当前位置: 首页 >> 海外电影 >> 周末[中文字幕].Weekend.1967.CC.BluRay.1080p.x265.10bit.FLAC.MNHD-btbt9527.com 5.40GB >> 正文

周末[中文字幕].Weekend.1967.CC.BluRay.1080p.x265.10bit.FLAC.MNHD-btbt9527.com 5.40GB

2021年12月08日 10:03:22     电影发布:来源于网络     电影分类:海外电影     评论(0)    

周末[中文字幕].Weekend.1967.CC.BluRay.1080p.x265.10bit.FLAC.MNHD btbt9527.com 5.40GB 喜剧片 剧情片 海外电影  第1张

◎译 名 周末 / Week-end / Weekend

◎片 名 Week End

◎年 代 1967

◎产 地 法国 / 意大利

◎类 别 剧情 / 喜剧

◎语 言 法语

◎上映日期 1967-12-29

◎IMDb链接 https://www.imdb.com/title/tt0062480/

◎豆瓣评分 8.0/10 (3789人评价)

◎豆瓣链接 https://movie.douban.com/subject/1296338/

◎片 长 105 分钟

◎导 演 让-吕克·戈达尔 Jean-Luc Godard (id:1055489)

◎编 剧 让-吕克·戈达尔 Jean-Luc Godard (id:1055489)

◎演 员 米蕾叶·达尔克 Mireille Darc (id:1048311)

让·雅南 Jean Yanne (id:1009841)

琼-皮尔里·卡尔弗恩 Jean-Pierre Kalfon (id:1042030)

拉斯洛·绍博 László Szabó (id:1003525)

伊夫·阿封索 Yves Afonso (id:1056440)

Yves Beneyton Yves Beneyton (id:1063561)

米歇尔·古诺 Michel Cournot (id:1047216)

安妮·维亚泽姆斯基 Anne Wiazemsky (id:1045468)

让·厄斯塔什 Jean Eustache (id:1037294)

瓦勒瑞·拉格兰 Valérie Lagrange (id:1033433)

保罗·热戈夫 Paul Gégauff (id:1025637)

让-皮埃尔·利奥德 Jean-Pierre Léaud (id:1022553)

朱丽叶·贝尔托 Juliet Berto (id:1016846)

Blandine Jeanson Blandine Jeanson (id:1109228)

Antoine Duhamel Antoine Duhamel (id:1023946)

拉乌尔·库塔尔 Raoul Coutard (id:1050746)

克洛德·米勒 Claude Miller (id:1032644)

◎标 签 法国 / 戈达尔 / 新浪潮 / 让-吕克·戈达尔 / 法国电影 / 1967 / 1960s / JeanLucGodard

◎简 介

1968年,电影导演让·吕克-戈达尔已经获得了太多的成功。 这一年,电影界前辈、法国电影资料馆馆长亨利·郎格洛瓦提出了整个电影史应该以"戈达尔前"与"戈达尔后"两个概念来划分的论点。在他看来,38岁的哥达尔结束了一个时代也开创了一个时代。 著名作家路易·阿拉贡早在1965年就已经说过:"今天的艺术就是戈达尔。"著名存在主义哲学家萨特也宣称:"在戈达尔的影片里,学问太多了。"

其实,除了处女作《筋疲力尽》获得1960年西柏林电影节最佳导演奖、《狂人比挨洛》获得1965年威尼斯国际电影节青年评论奖、《中国姑娘》获得1967年威尼斯电影节评委会特别奖外,戈达尔导演的其他几十部影片,并没有给他带来很好的声誉,大多数观众看戈达尔的电影,不是不知所措,就是焦躁不安。 或许,戈达尔生来就是电影的敌人。

在1967年拍摄的《周末》里,他让动作停止--两个倒垃圾的人直...

◎获奖情况 (共1项)

第18届柏林国际电影节 (1968)

金熊奖 最佳影片(提名)

└──让-吕克·戈达尔 (id:1055489)

  1. ##### MediaInfo ######

  2. General

  3. Unique ID : 158948741927264116576550258964773288380 (0x77946A070C3771D1C70A610BD34939BC)

  4. Complete name : [email protected]mkv

  5. Format : Matroska

  6. Format version : Version 4

  7. File size : 5.40 GiB

  8. Duration : 1 h 44 min

  9. Overall bit rate mode : Variable

  10. Overall bit rate : 7 424 kb/s

  11. Movie name : Weekend 1967 CC BluRay 1080p - FRDS

  12. Encoded date : UTC 2021-12-05 09:13:45

  13. Writing application : mkvmerge v63.0.0 ('Everything') 64-bit

  14. Writing library : libebml v1.4.2 + libmatroska v1.6.4


  15. Video

  16. ID : 1

  17. Format : HEVC

  18. Format/Info : High Efficiency Video Coding

  19. Format profile : Main [email protected]@Main

  20. Codec ID : V_MPEGH/ISO/HEVC

  21. Duration : 1 h 44 min

  22. Bit rate : 6 850 kb/s

  23. Width : 1 792 pixels

  24. Height : 1 080 pixels

  25. Display aspect ratio : 5:3

  26. Frame rate mode : Constant

  27. Frame rate : 23.976 (24000/1001/53354) FPS

  28. Color space : YUV

  29. Chroma subsampling : 4:2:0

  30. Bit depth : 10 bits

  31. Bits/(Pixel*Frame) : 0.148

  32. Stream size : 4.98 GiB (92%)

  33. Writing library : x265 2.3+7-c15f8bce9f4b:[Windows][GCC 6.3.0][64 bit] 10bit

  34. Encoding settings : cpuid=533541173503 / frame-threads=6 / numa-pools=36 / wpp / no-pmode / no-pme / no-psnr / no-ssim / log-level=2 / input-csp=1 / input-res=1792x1080 / interlace=0 / total-frames=149833 / level-idc=0 / high-tier=1 / uhd-bd=0 / ref=5 / no-allow-non-conformance / no-repeat-headers / annexb / no-aud / no-hrd / info / hash=0 / no-temporal-layers / no-open-gop / min-keyint=1 / keyint=360 / bframes=8 / b-adapt=2 / b-pyramid / bframe-bias=0 / rc-lookahead=60 / lookahead-slices=4 / NTMzNTQ=uuDQuD2mJt9fsCf / scenecut=40 / no-intra-refresh / ctu=32 / min-cu-size=8 / rect / no-amp / max-tu-size=16 / tu-inter-depth=2 / tu-intra-depth=2 / limit-tu=0 / rdoq-level=2 / dynamic-rd=0.00 / signhide / no-tskip / nr-intra=0 / nr-inter=0 / no-constrained-intra / no-strong-intra-smoothing / max-merge=3 / limit-refs=2 / limit-modes / me=3 / subme=5 / merange=25 / temporal-mvp / weightp / weightb / no-analyze-src-pics / deblock=-1:-1 / no-sao / no-sao-non-deblock / rd=4 / no-early-skip / rskip / no-fast-intra / no-tskip-fast / no-cu-lossless / b-intra / rdpenalty=1 / psy-rd=0.00 / psy-rdoq=5.00 / no-rd-refine / analysis-mode=0 / no-lossless / cbqpoffs=-1 / crqpoffs=-1 / rc=crf / crf=21.0 / qcomp=0.65 / qpstep=4 / stats-write=0 / stats-read=0 / ipratio=1.40 / pbratio=1.30 / aq-mode=1 / aq-strength=0.70 / cutree / zone-count=0 / no-strict-cbr / qg-size=16 / no-rc-grain / qpmax=69 / qpmin=0 / sar=0 / overscan=0 / videoformat=5 / range=0 / colorprim=1 / transfer=2 / colormatrix=2 / chromaloc=0 / display-window=0 / max-cll=0,0 / min-luma=0 / max-luma=1023 / log2-max-poc-lsb=8 / vui-timing-info / vui-hrd-info / slices=1 / opt-qp-pps / opt-ref-list-length-pps / no-multi-pass-opt-rps / scenecut-bias=0.05 / no-opt-cu-delta-qp / no-aq-motion / no-hdr / no-hdr-opt / Capture-colorprim=3

  35. Default : Yes

  36. Forced : No

  37. Color range : Limited

  38. Color primaries : BT.709


  39. Audio

  40. ID : 2

  41. Format : FLAC

  42. Format/Info : Free Lossless Audio Codec

  43. Codec ID : A_FLAC

  44. Duration : 1 h 44 min

  45. Bit rate mode : Variable

  46. Bit rate : 538 kb/s

  47. Channel(s) : 1 channel

  48. Channel layout : C

  49. Sampling rate : 48.0 kHz

  50. Frame rate : 11.719 FPS (4096 SPF)

  51. Bit depth : 24 bits

  52. Compression mode : Lossless

  53. Stream size : 401 MiB (7%)

  54. Writing library : libFLAC 1.2.1 (UTC 2007-09-17)

  55. Language : French

  56. Default : Yes

  57. Forced : No


  58. Text #1

  59. ID : 3

  60. Format : PGS

  61. Muxing mode : zlib

  62. Codec ID : S_HDMV/PGS

  63. Codec ID/Info : Picture based subtitle format used on BDs/HD-DVDs

  64. Duration : 1 h 43 min

  65. Bit rate : 39.3 kb/s

  66. Count of elements : 1990

  67. Stream size : 29.0 MiB (1%)

  68. Language : English

  69. Default : No

  70. Forced : No


  71. Text #2

  72. ID : 4

  73. Format : PGS

  74. Muxing mode : zlib

  75. Codec ID : S_HDMV/PGS

  76. Codec ID/Info : Picture based subtitle format used on BDs/HD-DVDs

  77. Duration : 1 h 43 min

  78. Bit rate : 25.0 kb/s

  79. Count of elements : 1779

  80. Stream size : 18.4 MiB (0%)

  81. Title : CHS

  82. Language : Chinese

  83. Default : Yes

  84. Forced : No


  85. Text #3

  86. ID : 5

  87. Format : PGS

  88. Muxing mode : zlib

  89. Codec ID : S_HDMV/PGS

  90. Codec ID/Info : Picture based subtitle format used on BDs/HD-DVDs

  91. Duration : 1 h 43 min

  92. Bit rate : 25.6 kb/s

  93. Count of elements : 1779

  94. Stream size : 18.9 MiB (0%)

  95. Title : CHT

  96. Language : Chinese

  97. Default : Yes

  98. Forced : No


  99. Menu

  100. 00:00:00.000 : en:Chapter 01

  101. 00:04:24.222 : en:Chapter 02

  102. 00:13:51.330 : en:Chapter 03

  103. 00:16:11.553 : en:Chapter 04

  104. 00:24:05.861 : en:Chapter 05

  105. 00:28:51.896 : en:Chapter 06

  106. 00:36:33.816 : en:Chapter 07

  107. 00:38:04.198 : en:Chapter 08

  108. 00:43:41.285 : en:Chapter 09

  109. 00:50:52.924 : en:Chapter 10

  110. 00:53:13.523 : en:Chapter 11

  111. 01:00:50.104 : en:Chapter 12

  112. 01:06:41.122 : en:Chapter 13

  113. 01:13:59.143 : en:Chapter 14

  114. 01:18:03.428 : en:Chapter 15

  115. 01:21:25.088 : en:Chapter 16

  116. 01:27:50.348 : en:Chapter 17

  117. 01:30:22.166 : en:Chapter 18

  118. 01:38:39.246 : en:Chapter 19




复制代码



文件下载


除非特别注明,本文『周末[中文字幕].Weekend.1967.CC.BluRay.1080p.x265.10bit.FLAC.MNHD-btbt9527.com 5.40GB』来源于互联网机器人自动抓取,非本站原创。 浮游电影网不对本文拥有版权,如有侵犯,请联系邮箱:fuyouu#yandex.com[#换成@]投诉。我们会在15个工作日内删除。 但烦请转载时请标明出处:“本文转载于『浮游电影网』,原文地址:https://www.fuyouu.com/19186.html

评论吧骚年!

发表你的见解   

昵称*

E-mail*(建议输入,以便收到博主回复的提示邮件)

验证码*

您可以使用eMule或eMule Mod(Windows)、aMule(Win、Linux、Mac)等软件下载eD2k链接。。
eMule收藏集(.emulecollection)文件是您选中的所有链接的列表文件。eMule可以直接下载它们。
按住SHIFT键选择可以选中多个选择框。
可用文件名和大小选择器来选择文件。
文件名选择器帮您根据文件名称或后缀来选择文件。不分大小写。
符号使用:
和:空格( )、+
不包含:-
或:|
转义:一对英文引号("");
匹配开头:^
匹配结尾:$
例如:
选中所有名称中包含有“eMule”或“0.49c”字眼,但不包含有“exe”字眼的:emule|0.49c -exe
选中所有名称的开头是“eMule”,结尾是“0.49c”的:^emule 0.49c$
选中所有名称中带有“eMule 0.49c”的(必须是“eMule 0.49c”,中间没有别的字符,不能是“eMule fake 0.49c”),需要转义:"emule 0.49c"
大小选择器帮您根据文件大小选择文件。