当前位置: 首页 >> 欧美电影 >> 偷书贼[双语字幕].The.Book.Thief.2013.1080p.BluRay.x265.10bit.AC3.MNHD-btbt9527.com 8.08GB >> 正文

偷书贼[双语字幕].The.Book.Thief.2013.1080p.BluRay.x265.10bit.AC3.MNHD-btbt9527.com 8.08GB

2021年12月06日 22:58:56     电影发布:来源于网络     电影分类:欧美电影     评论(0)    

偷书贼[双语字幕].The.Book.Thief.2013.1080p.BluRay.x265.10bit.AC3.MNHD btbt9527.com 8.08GB 战争片 剧情片 欧美电影  第1张

◎译 名 偷书贼 / 窃书贼

◎片 名 The Book Thief

◎年 代 2013

◎产 地 美国 / 德国

◎类 别 剧情 / 战争

◎语 言 英语 / 德语

◎上映日期 2013-11-08(美国)

◎IMDb链接 https://www.imdb.com/title/tt0816442/

◎豆瓣评分 7.9/10 (28152人评价)

◎豆瓣链接 https://movie.douban.com/subject/21348876/

◎片 长 131分钟

◎导 演 布莱恩·派西维尔 Brian Percival (id:1303301)

◎编 剧 迈克尔·彼得罗尼 Michael Petroni (id:1276127)

马克斯·苏萨克 Markus Zusak (id:1335299)

◎演 员 杰弗里·拉什 Geoffrey Rush (id:1010543)

艾米丽·沃森 Emily Watson (id:1013814)

苏菲·奈丽丝 Sophie Nélisse (id:1323944)

本·施耐泽 Ben Schnetzer (id:1335298)

尼科·利尔施 Nico Liersch (id:1265790)

约阿希姆·保罗·阿斯波克 Joachim Paul Assb?ck (id:1057617)

克斯腾·布劳克 Kirsten Block (id:1278817)

希尔德加德·斯罗德 Hildegard Schroedter (id:1232010)

桑德拉·内德勒夫 Sandra Nedeleff (id:1134111)

卡莉娜·N.维斯 Carina N. Wiese (id:1166158)

莱文·利亚姆 Levin Liam (id:1357529)

杰西·欧文斯 Jesse Owens (id:1129617)

海克·玛卡琪 Heike Makatsch (id:1022795)

赖纳·博克 Rainer Bock (id:1278861)

罗杰·阿拉姆 Roger Allam (id:1041283)

约翰·威廉姆斯 John Williams (id:1054692)

罗伯特·洛佩兹 Robert Lopez (id:1337971)

弗洛里安·巴尔豪斯 Florian Ballhaus (id:1420282)

◎标 签 二战 / 德国 / 战争 / 小说改编 / 美国 / 剧情 / 2013 / 人性

◎简 介

1939年的德国,9岁的小女孩莉赛尔和弟弟被迫送往慕尼黑远郊的寄养家庭。6岁的弟弟不幸死在了路途中。在冷清的葬礼后,莉赛尔意外得到她的第一本书《掘墓人手册》。

这将是14本给她带来无限安慰的书之一。她是个孤苦的孩子,父亲被打上了共产主义者的烙印,被纳粹带走了;母亲随后也失踪了。在弹奏手风琴的养父的帮助下,她学会了阅读。尽管生活艰苦,她却发现了一个比食物更难以抗拒的东西——书。她忍不住开始偷书。莉赛尔,这个被死神称为“偷书贼”的可怜女孩,在战乱的德国努力地生存着,并不可思议地帮助了周围同样承受苦难的人。

◎获奖情况 (共8项)

第86届奥斯卡金像奖 (2014)

最佳原创配乐(提名)

第71届金球奖 (2014)

电影类 最佳原创配乐(提名)

第19届美国评论家选择电影奖 (2014)

最佳青少年演员(提名)

└──苏菲·奈丽丝 (id:1323944)

第18届金卫星奖 (2014)

电影部门 最佳女配角(提名)

└──艾米丽·沃森 (id:1013814)

电影部门 最佳原创配乐(提名)

└──约翰·威廉姆斯 (id:1054692)

突破表演奖

└──苏菲·奈丽丝 (id:1323944)

第17届好莱坞电影奖 (2013)

最受关注奖

└──苏菲·奈丽丝 (id:1323944)

第13届凤凰城影评人协会奖 (2013)

最佳青年女演员

└──苏菲·奈丽丝 (id:1323944)

  1. ##### MediaInfo ######

  2. General

  3. Unique ID : 329424346074375495451845466399174401107 (0xF7D4D23D89828000143F97BBABDD9C53)

  4. Complete name : [email protected]me.mkv

  5. Format : Matroska

  6. Format version : Version 4

  7. File size : 8.08 GiB

  8. Duration : 2 h 10 min

  9. Overall bit rate : 8 826 kb/s

  10. Movie name : [email protected]me

  11. Encoded date : UTC 2021-12-05 08:42:06

  12. Writing application : mkvmerge v61.0.0 ('So') 64-bit

  13. Writing library : libebml v1.4.2 + libmatroska v1.6.4

  14. Cover : Yes

  15. Attachments : cover.jpg


  16. Video

  17. ID : 1

  18. Format : HEVC

  19. Format/Info : High Efficiency Video Coding

  20. Format profile : Main [email protected]@High

  21. Codec ID : V_MPEGH/ISO/HEVC

  22. Duration : 2 h 10 min

  23. Bit rate : 8 111 kb/s

  24. Width : 1 920 pixels

  25. Height : 800 pixels

  26. Display aspect ratio : 2.40:1

  27. Frame rate mode : Constant

  28. Frame rate : 23.976 (24000/1001/53354) FPS

  29. Color space : YUV

  30. Chroma subsampling : 4:2:0

  31. Bit depth : 10 bits

  32. Bits/(Pixel*Frame) : 0.220

  33. Stream size : 7.42 GiB (92%)

  34. Writing library : x265 3.5+2-g2b25c9ba0+45:[Windows][GCC 10.2.0][64 bit] Yuuki 10bit

  35. Encoding settings : rc=crf / crf=21.0000 / qcomp=0.65 / qpstep=4 / stats-write=0 / stats-read=0 / vbv-maxrate=160000 / vbv-bufsize=160000 / vbv-init=0.9 / min-vbv-fullness=50.0 / max-vbv-fullness=80.0 / crf-max=0.0 / crf-min=0.0 / no-lossless / no-cu-lossless / aq-mode=1 / aq-strength=1.00 / cbqpoffs=-2 / crqpoffs=-2 / ipratio=1.30 / pbratio=1.20 / psy-rd=1.50 / psy-rdoq=1.00 / deblock=-3:-3 / ref=6 / limit-refs=0 / no-limit-modes / bframes=8 / b-adapt=2 / bframe-bias=0 / b-pyramid / b-intra / weightp / weightb / min-keyint=1 / max-keyint=250 / rc-lookahead=100 / gop-lookahead=0 / NTMzNTQ=uuDQuD2mJt9fsCf / scenecut=40 / hist-scenecut=0 / radl=0 / max-cu-size=32 / min-cu-size=8 / me=3 / subme=7 / merange=57 / rdoq-level=2 / rd=4 / rdpenalty=0 / dynamic-rd=0.00 / no-rd-refine / ----- / no-cutree / no-sao / no-rect / no-amp / no-open-gop / wpp / pmode / no-pme / no-psnr / no-ssim / nr-intra=0 / nr-inter=0 / no-constrained-intra / strong-intra-smoothing / max-tu-size=32 / tu-inter-depth=4 / tu-intra-depth=4 / limit-tu=0 / qg-size=8 / qpmax=69 / qpmin=0 / ----- / cpuid=533541111039 / frame-threads=3 / numa-pools=12 / log-level=2 / input-csp=1 / input-res=1920x800 / interlace=0 / level-idc=0 / high-tier=1 / uhd-bd=0 / no-allow-non-conformance / no-repeat-headers / no-aud / no-hrd / info / hash=0 / no-temporal-layers / lookahead-slices=0 / no-splice / no-intra-refresh / no-ssim-rd / signhide / tskip / max-merge=5 / temporal-mvp / no-frame-dup / no-hme / no-analyze-src-pics / no-sao-non-deblock / selective-sao=0 / no-early-skip / no-rskip / no-fast-intra / no-tskip-fast / no-splitrd-skip / zone-count=0 / no-strict-cbr / no-rc-grain / no-const-vbv / sar=0 / overscan=0 / videoformat=5 / range=0 / colorprim=1 / transfer=1 / colormatrix=1 / chromaloc=0 / display-window=0 / cll=0,0 / min-luma=0 / max-luma=1023 / log2-max-poc-lsb=8 / vui-timing-info / vui-hrd-info / slices=1 / no-opt-qp-pps / no-opt-ref-list-length-pps / no-multi-pass-opt-rps / scenecut-bias=0.05 / hist-threshold=0.03 / no-opt-cu-delta-qp / no-aq-motion / no-hdr10 / no-hdr10-opt / no-dhdr10-opt / no-idr-recovery-sei / analysis-reuse-level=0 / analysis-save-reuse-level=0 / analysis-load-reuse-level=0 / scale-factor=0 / refine-intra=0 / refine-inter=0 / refine-mv=1 / refine-ctu-distortion=0 / no-limit-sao / ctu-info=0 / no-lowpass-dct / refine-analysis-type=0 / copy-pic=1 / max-ausize-factor=1.0 / no-dynamic-refine / no-single-sei / no-hevc-aq / no-svt / no-field / qp-adaptation-range=1.00 / scenecut-aware-qp=0conformance-window-offsets / right=0 / bottom=0 / NTMzNTQ= / decoder-max-rate=0 / no-vbv-live-multi-pass

  36. Default : Yes

  37. Forced : No

  38. Color range : Limited

  39. Color primaries : BT.709

  40. Transfer characteristics : BT.709

  41. Matrix coefficients : BT.709


  42. Audio

  43. ID : 2

  44. Format : AC-3

  45. Format/Info : Audio Coding 3

  46. Commercial name : Dolby Digital

  47. Codec ID : A_AC3

  48. Duration : 2 h 10 min

  49. Bit rate mode : Constant

  50. Bit rate : 640 kb/s

  51. Channel(s) : 6 channels

  52. Channel layout : L R C LFE Ls Rs

  53. Sampling rate : 48.0 kHz

  54. Frame rate : 31.250 FPS (1536 SPF)

  55. Compression mode : Lossy

  56. Stream size : 600 MiB (7%)

  57. Language : English

  58. Service kind : Complete Main

  59. Default : Yes

  60. Forced : No


  61. Text #1

  62. ID : 3

  63. ID in the original source medium : 4608 (0x1200)

  64. Format : PGS

  65. Muxing mode : zlib

  66. Codec ID : S_HDMV/PGS

  67. Codec ID/Info : Picture based subtitle format used on BDs/HD-DVDs

  68. Duration : 2 h 4 min

  69. Bit rate : 25.5 kb/s

  70. Count of elements : 2858

  71. Stream size : 22.7 MiB (0%)

  72. Title : ENG

  73. Language : English

  74. Default : Yes

  75. Forced : No

  76. Original source medium : Blu-ray


  77. Text #2

  78. ID : 4

  79. ID in the original source medium : 4614 (0x1206)

  80. Format : PGS

  81. Muxing mode : zlib

  82. Codec ID : S_HDMV/PGS

  83. Codec ID/Info : Picture based subtitle format used on BDs/HD-DVDs

  84. Duration : 2 h 6 min

  85. Bit rate : 31.0 kb/s

  86. Count of elements : 3244

  87. Stream size : 27.9 MiB (0%)

  88. Title : CHS

  89. Language : Chinese

  90. Default : Yes

  91. Forced : No

  92. Original source medium : Blu-ray


  93. Text #3

  94. ID : 5

  95. ID in the original source medium : 4615 (0x1207)

  96. Format : PGS

  97. Muxing mode : zlib

  98. Codec ID : S_HDMV/PGS

  99. Codec ID/Info : Picture based subtitle format used on BDs/HD-DVDs

  100. Duration : 2 h 6 min

  101. Bit rate : 36.5 kb/s

  102. Count of elements : 3244

  103. Stream size : 33.0 MiB (0%)

  104. Title : CHS&ENG

  105. Language : Chinese

  106. Default : Yes

  107. Forced : No

  108. Original source medium : Blu-ray


  109. Text #4

  110. ID : 6

  111. ID in the original source medium : 4633 (0x1219)

  112. Format : PGS

  113. Muxing mode : zlib

  114. Codec ID : S_HDMV/PGS

  115. Codec ID/Info : Picture based subtitle format used on BDs/HD-DVDs

  116. Duration : 2 h 6 min

  117. Bit rate : 31.4 kb/s

  118. Count of elements : 3244

  119. Stream size : 28.4 MiB (0%)

  120. Title : CHT

  121. Language : Chinese

  122. Default : Yes

  123. Forced : No

  124. Original source medium : Blu-ray


  125. Text #5

  126. ID : 7

  127. ID in the original source medium : 4634 (0x121A)

  128. Format : PGS

  129. Muxing mode : zlib

  130. Codec ID : S_HDMV/PGS

  131. Codec ID/Info : Picture based subtitle format used on BDs/HD-DVDs

  132. Duration : 2 h 6 min

  133. Bit rate : 37.6 kb/s

  134. Count of elements : 3244

  135. Stream size : 33.9 MiB (0%)

  136. Title : CHT&ENG

  137. Language : Chinese

  138. Default : Yes

  139. Forced : No

  140. Original source medium : Blu-ray


  141. Menu

  142. 00:00:00.000 : Chapter 01

  143. 00:03:50.230 : Chapter 02

  144. 00:07:58.060 : Chapter 03

  145. 00:10:27.126 : Chapter 04

  146. 00:13:42.404 : Chapter 05

  147. 00:17:54.948 : Chapter 06

  148. 00:20:17.591 : Chapter 07

  149. 00:23:01.380 : Chapter 08

  150. 00:24:57.746 : Chapter 09

  151. 00:26:58.158 : Chapter 10

  152. 00:30:54.811 : Chapter 11

  153. 00:34:01.164 : Chapter 12

  154. 00:39:21.859 : Chapter 13

  155. 00:43:00.869 : Chapter 14

  156. 00:45:09.998 : Chapter 15

  157. 00:50:59.056 : Chapter 16

  158. 00:52:18.760 : Chapter 17

  159. 00:54:55.709 : Chapter 18

  160. 00:59:04.624 : Chapter 19

  161. 01:02:16.232 : Chapter 20

  162. 01:05:42.563 : Chapter 21

  163. 01:08:20.513 : Chapter 22

  164. 01:12:41.982 : Chapter 23

  165. 01:18:14.856 : Chapter 24

  166. 01:23:50.025 : Chapter 25

  167. 01:27:59.399 : Chapter 26

  168. 01:30:46.274 : Chapter 27

  169. 01:36:25.404 : Chapter 28

  170. 01:40:48.584 : Chapter 29

  171. 01:43:54.811 : Chapter 30

  172. 01:47:24.104 : Chapter 31

  173. 01:49:38.405 : Chapter 32

  174. 01:54:24.274 : Chapter 33

  175. 02:02:10.948 : Chapter 34

  176. 02:03:13.386 : Chapter 35

  177. 02:05:21.514 : Chapter 36


文件下载


除非特别注明,本文『偷书贼[双语字幕].The.Book.Thief.2013.1080p.BluRay.x265.10bit.AC3.MNHD-btbt9527.com 8.08GB』来源于互联网机器人自动抓取,非本站原创。 浮游电影网不对本文拥有版权,如有侵犯,请联系邮箱:fuyouu#yandex.com[#换成@]投诉。我们会在15个工作日内删除。 但烦请转载时请标明出处:“本文转载于『浮游电影网』,原文地址:https://www.fuyouu.com/19177.html

评论吧骚年!

发表你的见解   

昵称*

E-mail*(建议输入,以便收到博主回复的提示邮件)

验证码*

您可以使用eMule或eMule Mod(Windows)、aMule(Win、Linux、Mac)等软件下载eD2k链接。。
eMule收藏集(.emulecollection)文件是您选中的所有链接的列表文件。eMule可以直接下载它们。
按住SHIFT键选择可以选中多个选择框。
可用文件名和大小选择器来选择文件。
文件名选择器帮您根据文件名称或后缀来选择文件。不分大小写。
符号使用:
和:空格( )、+
不包含:-
或:|
转义:一对英文引号("");
匹配开头:^
匹配结尾:$
例如:
选中所有名称中包含有“eMule”或“0.49c”字眼,但不包含有“exe”字眼的:emule|0.49c -exe
选中所有名称的开头是“eMule”,结尾是“0.49c”的:^emule 0.49c$
选中所有名称中带有“eMule 0.49c”的(必须是“eMule 0.49c”,中间没有别的字符,不能是“eMule fake 0.49c”),需要转义:"emule 0.49c"
大小选择器帮您根据文件大小选择文件。