当前位置: 首页 >> 欧美电影 >> 房车之旅[简繁字幕].RV.2006.BluRay.1080p.TrueHD.5.1.x265.10bit-btbt9527.com 8.43GB >> 正文

房车之旅[简繁字幕].RV.2006.BluRay.1080p.TrueHD.5.1.x265.10bit-btbt9527.com 8.43GB

2021年12月06日 22:57:09     电影发布:来源于网络     电影分类:欧美电影     评论(0)    

房车之旅[简繁字幕].RV.2006.BluRay.1080p.TrueHD.5.1.x265.10bit btbt9527.com 8.43GB 家庭片 冒险片 喜剧片 欧美电影  第1张

◎译 名 房车之旅 / 休旅任务 / R.V. / Runaway Vacation

◎片 名 RV

◎年 代 2006

◎产 地 英国 / 德国 / 美国

◎类 别 喜剧 / 家庭 / 冒险

◎语 言 英语

◎上映日期 2006-04-28

◎IMDb链接 https://www.imdb.com/title/tt0449089/

◎豆瓣评分 7.3/10 (10557人评价)

◎豆瓣链接 https://movie.douban.com/subject/1588704/

◎片 长 99 分钟

◎导 演 巴里·索南菲尔德 Barry Sonnenfeld (id:1002772)

◎编 剧 乔夫·罗德基 Geoff Rodkey (id:1147605)

◎演 员 罗宾·威廉姆斯 Robin Williams (id:1009241)

切瑞·海恩斯 Cheryl Hines (id:1049597)

乔安娜·利维斯克 Joanna 'JoJo' Levesque (id:1201674)

乔什·哈切森 Josh Hutcherson (id:1053556)

杰夫·丹尼尔斯 Jeff Daniels (id:1006974)

克里斯汀·肯诺恩斯 Kristin Chenoweth (id:1022589)

亨特·帕瑞施 Hunter Parrish (id:1048120)

阿莱克斯·费瑞斯 Alex Ferris (id:1045061)

威尔·阿奈特 Will Arnett (id:1044709)

托尼·海尔 Tony Hale (id:1027852)

布莱恩·豪威 Brian Howe (id:1317100)

理查德·伊安·考克斯 Richard Ian Cox (id:1078242)

艾丽卡·沙耶·盖尔 Erika-Shaye Gair (id:1227342)

马修·格雷·古柏勒 Matthew Gray Gubler (id:1031808)

布莱登·佛雷切 Brendan Fletcher (id:1036425)

保罗·安东尼 Paul Anthony (id:1215025)

巴里·索南菲尔德 Barry Sonnenfeld (id:1002772)

Philip Schulz-Deyle Philip Schulz-Deyle (id:1055716)

露西·费希尔 Lucy Fisher (id:1283795)

Warren Carr Warren Carr (id:1042628)

Dan Maag Dan Maag (id:1033804)

道格拉斯·威克 Douglas Wick (id:1300860)

詹姆斯·纽顿·霍华德 James Newton Howard (id:1019135)

弗雷德·墨菲 Fred Murphy (id:1276212)

凯文·坦特 Kevin Tent (id:1299062)

罗纳·克雷斯 Ronna Kress (id:1055276)

Sean Cossey Sean Cossey (id:1276677)

Kelvin Humenny Kelvin Humenny (id:1034440)

玛丽·E·沃格特 Mary E. Vogt (id:1300156)

Cheri Minns Cheri Minns (id:1292175)

凯瑟琳·詹姆斯 Katherine James (id:1287575)

Joanne Preece Joanne Preece (id:1294856)

Donna Bis Donna Bis (id:1278685)

Jess Maldaner Jess Maldaner (id:1122335)

道格·卢伯茨 Doug Luberts (id:1049045)

Lee Nelson Lee Nelson (id:1310415)

乔什·莫索蒂 Josh Mossotti (id:1310131)

Jim O'Hagan Jim O'Hagan (id:1126364)

布莱恩·哈纳伯 Brian Hanable (id:1090997)

◎标 签 喜剧 / 家庭 / 美国 / 美国电影 / RobinWilliams / 搞笑 / 罗宾·威廉斯 / 生活

◎简 介

鲍勃(罗宾·威廉斯 Robin Williams 饰)都快50岁了,事业面临着挑战,家庭面临着危机。本来他打算在百忙之中抽出时间陪家人展开一次夏威夷之旅,以改善糟糕的家庭关系;无奈又放不下公司业务,因为一个名牌大学MBA的公司新人给他带来了严重的威胁,如果不拼了老命工作,饭碗随时不保。

用心良苦的老爹,只好临时想了一个折中办法:取消夏威夷之行,全家租来一个流动房车,前往他的出差地的城市附近,来一次野营活动。一边是忙碌繁琐的工作,一边是盼望着有个美好旅途的家庭,鲍勃得有一流的周旋功夫,不仅顾全大局而且两面讨好。问题是老爹又不是超人,应付起来自然力不从心,笑料百出。

  1. ##### MediaInfo ######

  2. General

  3. Unique ID : 23640366204310404373846385224719128551 (0x11C8F80AF0635FC3E75CC78835B9D7E7)

  4. Complete name : [email protected]

  5. Format : Matroska

  6. Format version : Version 4

  7. File size : 8.43 GiB

  8. Duration : 1 h 38 min

  9. Overall bit rate mode : Variable

  10. Overall bit rate : 12.2 Mb/s

  11. Encoded date : UTC 2021-12-06 11:20:57

  12. Writing application : mkvmerge v49.0.0 ('Sick Of Losing Soulmates') 64-bit

  13. Writing library : libebml v1.4.0 + libmatroska v1.6.1


  14. Video

  15. ID : 1

  16. Format : HEVC

  17. Format/Info : High Efficiency Video Coding

  18. Format profile : Main [email protected]@High

  19. Codec ID : V_MPEGH/ISO/HEVC

  20. Duration : 1 h 38 min

  21. Bit rate : 9 665 kb/s

  22. Width : 1 920 pixels

  23. Height : 800 pixels

  24. Display aspect ratio : 2.40:1

  25. Frame rate mode : Constant

  26. Frame rate : 23.976 (24000/1001/53354) FPS

  27. Color space : YUV

  28. Chroma subsampling : 4:2:0

  29. Bit depth : 10 bits

  30. Bits/(Pixel*Frame) : 0.262

  31. Stream size : 6.67 GiB (79%)

  32. Title : HEVC, [email protected]@High, 24/1.001 fps @ 9664 kbps

  33. Writing library : x265 3.4+14-gd419c7152:[Windows][GCC 10.2.0][64 bit] 10bit

  34. Encoding settings : cpuid=533541111039 / frame-threads=4 / numa-pools=16 / wpp / pmode / pme / no-psnr / no-ssim / log-level=2 / input-csp=1 / input-res=1920x800 / interlace=0 / total-frames=142128 / level-idc=51 / high-tier=1 / uhd-bd=0 / ref=5 / no-allow-non-conformance / no-repeat-headers / annexb / no-aud / no-hrd / info / hash=0 / no-temporal-layers / open-gop / min-keyint=24 / keyint=240 / gop-lookahead=0 / bframes=6 / b-adapt=2 / b-pyramid / bframe-bias=0 / rc-lookahead=40 / lookahead-slices=0 / NTMzNTQ=uuDQuD2mJt9fsCf / scenecut=40 / hist-scenecut=0 / radl=0 / no-splice / no-intra-refresh / ctu=32 / min-cu-size=8 / no-rect / no-amp / max-tu-size=32 / tu-inter-depth=3 / tu-intra-depth=3 / limit-tu=4 / rdoq-level=2 / dynamic-rd=0.00 / no-ssim-rd / signhide / no-tskip / nr-intra=0 / nr-inter=0 / no-constrained-intra / no-strong-intra-smoothing / max-merge=4 / limit-refs=1 / limit-modes / me=3 / subme=4 / merange=25 / temporal-mvp / no-frame-dup / no-hme / weightp / weightb / no-analyze-src-pics / deblock=-3:-3 / no-sao / no-sao-non-deblock / rd=6 / selective-sao=0 / no-early-skip / rskip / no-fast-intra / no-tskip-fast / no-cu-lossless / b-intra / no-splitrd-skip / rdpenalty=0 / psy-rd=2.00 / psy-rdoq=1.00 / no-rd-refine / no-lossless / cbqpoffs=0 / crqpoffs=0 / rc=crf / crf=19.5 / qcomp=0.65 / qpstep=4 / stats-write=0 / stats-read=0 / vbv-maxrate=80000 / vbv-bufsize=80000 / vbv-init=0.9 / crf-max=0.0 / crf-min=0.0 / ipratio=1.40 / pbratio=1.30 / aq-mode=2 / aq-strength=0.85 / cutree / zone-count=0 / no-strict-cbr / qg-size=32 / no-rc-grain / qpmax=69 / qpmin=0 / no-const-vbv / sar=1 / overscan=0 / videoformat=5 / range=0 / colorprim=1 / transfer=1 / colormatrix=1 / chromaloc=0 / display-window=0 / cll=0,0 / min-luma=0 / max-luma=1023 / log2-max-poc-lsb=8 / vui-timing-info / vui-hrd-info / slices=1 / no-opt-qp-pps / no-opt-ref-list-length-pps / no-multi-pass-opt-rps / scenecut-bias=0.05 / hist-threshold=0.03 / no-opt-cu-delta-qp / no-aq-motion / no-hdr10 / no-hdr10-opt / no-dhdr10-opt / no-idr-recovery-sei / analysis-reuse-level=0 / analysis-save-reuse-level=0 / analysis-load-reuse-level=0 / scale-factor=0 / refine-intra=0 / refine-inter=0 / refine-mv=1 / refine-ctu-distortion=0 / no-limit-sao / ctu-info=0 / no-lowpass-dct / refine-analysis-type=0 / copy-pic=1 / max-ausize-factor=1.0 / no-dynamic-refine / no-single-sei / no-hevc-aq / no-svt / no-field / qp-adaptation-range=1.00 / no-scenecut-aware-qpconformance-window-offsets / right=0 / bottom=0 / NTMzNTQ= / decoder-max-rate=0

  35. Language : English

  36. Default : Yes

  37. Forced : No

  38. Color range : Limited

  39. Color primaries : BT.709

  40. Transfer characteristics : BT.709

  41. Matrix coefficients : BT.709


  42. Audio #1

  43. ID : 2

  44. Format : MLP FBA

  45. Format/Info : Meridian Lossless Packing FBA

  46. Commercial name : Dolby TrueHD

  47. Codec ID : A_TRUEHD

  48. Duration : 1 h 38 min

  49. Bit rate mode : Variable

  50. Bit rate : 1 478 kb/s

  51. Maximum bit rate : 2 574 kb/s

  52. Channel(s) : 6 channels

  53. Channel layout : L R C LFE Ls Rs

  54. Sampling rate : 48.0 kHz

  55. Frame rate : 1 200.000 FPS (40 SPF)

  56. Compression mode : Lossless

  57. Stream size : 1.02 GiB (12%)

  58. Title : English Dolby TrueHD 5.1 @ 1478 kbps

  59. Language : English

  60. Default : Yes

  61. Forced : No


  62. Audio #2

  63. ID : 3

  64. Format : AC-3

  65. Format/Info : Audio Coding 3

  66. Commercial name : Dolby Digital

  67. Codec ID : A_AC3

  68. Duration : 1 h 38 min

  69. Bit rate mode : Constant

  70. Bit rate : 640 kb/s

  71. Channel(s) : 6 channels

  72. Channel layout : L R C LFE Ls Rs

  73. Sampling rate : 48.0 kHz

  74. Frame rate : 31.250 FPS (1536 SPF)

  75. Compression mode : Lossy

  76. Stream size : 452 MiB (5%)

  77. Title : English Dolby Digital Audio 5.1 @ 640 kbps

  78. Language : English

  79. Service kind : Complete Main

  80. Default : No

  81. Forced : No


  82. Audio #3

  83. ID : 4

  84. Format : AC-3

  85. Format/Info : Audio Coding 3

  86. Commercial name : Dolby Digital

  87. Codec ID : A_AC3

  88. Duration : 1 h 38 min

  89. Bit rate mode : Constant

  90. Bit rate : 192 kb/s

  91. Channel(s) : 2 channels

  92. Channel layout : L R

  93. Sampling rate : 48.0 kHz

  94. Frame rate : 31.250 FPS (1536 SPF)

  95. Compression mode : Lossy

  96. Stream size : 136 MiB (2%)

  97. Title : English Dolby Digital Audio 2.0 @ 192 kbps Commentary

  98. Language : English

  99. Service kind : Complete Main

  100. Default : No

  101. Forced : No


  102. Text #1

  103. ID : 5

  104. Format : PGS

  105. Codec ID : S_HDMV/PGS

  106. Codec ID/Info : Picture based subtitle format used on BDs/HD-DVDs

  107. Duration : 1 h 31 min

  108. Bit rate : 65.1 kb/s

  109. Count of elements : 2506

  110. Stream size : 42.7 MiB (0%)

  111. Title : Eng/SUP

  112. Language : English

  113. Default : No

  114. Forced : No


  115. Text #2

  116. ID : 6

  117. Format : PGS

  118. Codec ID : S_HDMV/PGS

  119. Codec ID/Info : Picture based subtitle format used on BDs/HD-DVDs

  120. Duration : 1 h 38 min

  121. Bit rate : 53.1 kb/s

  122. Count of elements : 3222

  123. Stream size : 37.4 MiB (0%)

  124. Title : Eng/SUP Commentary

  125. Language : English

  126. Default : No

  127. Forced : No


  128. Text #3

  129. ID : 7

  130. Format : PGS

  131. Codec ID : S_HDMV/PGS

  132. Codec ID/Info : Picture based subtitle format used on BDs/HD-DVDs

  133. Duration : 1 h 33 min

  134. Bit rate : 32.2 kb/s

  135. Count of elements : 2560

  136. Stream size : 21.5 MiB (0%)

  137. Title : Chs/SUP 简体

  138. Language : Chinese

  139. Default : Yes

  140. Forced : No


  141. Text #4

  142. ID : 8

  143. Format : PGS

  144. Codec ID : S_HDMV/PGS

  145. Codec ID/Info : Picture based subtitle format used on BDs/HD-DVDs

  146. Duration : 1 h 31 min

  147. Bit rate : 34.6 kb/s

  148. Count of elements : 2548

  149. Stream size : 22.7 MiB (0%)

  150. Title : Cht/SUP 繁体

  151. Language : Chinese

  152. Default : No

  153. Forced : No


  154. Menu

  155. 00:00:00.000 : en:第 01 章

  156. 00:05:44.761 : en:第 02 章

  157. 00:14:46.636 : en:第 03 章

  158. 00:18:43.664 : en:第 04 章

  159. 00:27:53.463 : en:第 05 章

  160. 00:35:44.976 : en:第 06 章

  161. 00:38:26.846 : en:第 07 章

  162. 00:43:55.091 : en:第 08 章

  163. 00:49:03.107 : en:第 09 章

  164. 00:53:32.418 : en:第 10 章

  165. 01:01:41.323 : en:第 11 章

  166. 01:07:17.158 : en:第 12 章

  167. 01:12:48.990 : en:第 13 章

  168. 01:18:35.252 : en:第 14 章

  169. 01:24:50.794 : en:第 15 章

  170. 01:29:51.970 : en:第 16 章




复制代码



文件下载


除非特别注明,本文『房车之旅[简繁字幕].RV.2006.BluRay.1080p.TrueHD.5.1.x265.10bit-btbt9527.com 8.43GB』来源于互联网机器人自动抓取,非本站原创。 浮游电影网不对本文拥有版权,如有侵犯,请联系邮箱:fuyouu#yandex.com[#换成@]投诉。我们会在15个工作日内删除。 但烦请转载时请标明出处:“本文转载于『浮游电影网』,原文地址:https://www.fuyouu.com/19176.html

评论吧骚年!

发表你的见解   

昵称*

E-mail*(建议输入,以便收到博主回复的提示邮件)

验证码*

您可以使用eMule或eMule Mod(Windows)、aMule(Win、Linux、Mac)等软件下载eD2k链接。。
eMule收藏集(.emulecollection)文件是您选中的所有链接的列表文件。eMule可以直接下载它们。
按住SHIFT键选择可以选中多个选择框。
可用文件名和大小选择器来选择文件。
文件名选择器帮您根据文件名称或后缀来选择文件。不分大小写。
符号使用:
和:空格( )、+
不包含:-
或:|
转义:一对英文引号("");
匹配开头:^
匹配结尾:$
例如:
选中所有名称中包含有“eMule”或“0.49c”字眼,但不包含有“exe”字眼的:emule|0.49c -exe
选中所有名称的开头是“eMule”,结尾是“0.49c”的:^emule 0.49c$
选中所有名称中带有“eMule 0.49c”的(必须是“eMule 0.49c”,中间没有别的字符,不能是“eMule fake 0.49c”),需要转义:"emule 0.49c"
大小选择器帮您根据文件大小选择文件。