当前位置: 首页 >> 国产电影 >> 满城尽带黄金甲[国语音轨/简繁字幕].Curse.of.the.Golden.Flower.2006.BluRay.1080p.DTS-HD.MA.5.1.x265.10bit 12.65GB >> 正文

满城尽带黄金甲[国语音轨/简繁字幕].Curse.of.the.Golden.Flower.2006.BluRay.1080p.DTS-HD.MA.5.1.x265.10bit 12.65GB

2021年12月06日 22:52:59     电影发布:来源于网络     电影分类:国产电影     评论(0)    

满城尽带黄金甲[国语音轨/简繁字幕].Curse.of.the.Golden.Flower.2006.BluRay.1080p.DTS HD.MA.5.1.x265.10bit 12.65GB 古装片 爱情片 动作片 剧情片 国产电影  第1张

◎译 名 满城尽带黄金甲 / Curse of the Golden Flower

◎年 代 2006

◎产 地 中国大陆 / 中国香港

◎类 别 剧情 / 动作 / 爱情 / 古装

◎语 言 汉语普通话

◎上映日期 2006-12-14(中国大陆) / 2006-12-21(中国香港)

◎IMDb链接 https://www.imdb.com/title/tt0473444/

◎豆瓣评分 5.8/10 (221942人评价)

◎豆瓣链接 https://movie.douban.com/subject/1499008/

◎片 长 114分钟

◎导 演 张艺谋 Yimou Zhang (id:1054398)

◎编 剧 张艺谋 Yimou Zhang (id:1054398)

吴楠 Nan Wu (id:1322986)

卞智洪 Zhihong Bian (id:1350427)

曹禺 Yu Cao (id:1280026)

◎演 员 周润发 Yun-Fat Chow (id:1044899)

巩俐 Li Gong (id:1035641)

周杰伦 Jay Chou (id:1048000)

刘烨 Ye Liu (id:1000572)

陈瑾 Jin Chen (id:1309215)

倪大红 Dahong Ni (id:1274306)

李曼 Man Li (id:1018820)

秦俊杰 Junjie Qin (id:1316921)

郭常辉 Changhui Guo (id:1326226)

李鸣 Ming Li (id:1336632)

张伸 Shen Zhang (id:1327235)

封柏 Bai Feng (id:1364294)

马天宇 Ray Ma (id:1312820)

于卓 Zhuo Yu (id:1320886)

赵梦恬 Mengtian Zhao (id:1320673)

杜莹 Du Ying (id:1436252)

张震燕 Zhenyan Zhang (id:1385114)

江志强 William Kong (id:1288870)

张艺谋 Yimou Zhang (id:1054398)

张伟平 Weiping Zhang (id:1301698)

梅林茂 Shigeru Umebayashi (id:1005471)

白小妍 Xiaoyan Bai (id:1406328)

赵小丁 Xiaoding Zhao (id:1274347)

林辉泰 Raymond Lam (id:1424902)

温德光 De-Guang Wen (id:1340789)

程珑 Long Cheng (id:1308012)

王建国 Jianguo Wang (id:1302449)

赵斌 Bin Zhao (id:1302460)

孙红武 Hongwu Sun (id:1311482)

魏新华 Xinhua Wei (id:1312404)

霍廷霄 Tingxiao Huo (id:1287179)

董承光 Chengguang Dong (id:1312332)

杨占家 Zhanjia Yang (id:1301416)

宗瑉玄 Minxuan Zong (id:1312403)

戴美玲 Jessie Dai (id:1305279)

奚仲文 Chung-Man Hai (id:1275027)

文润铃 Yun-Ling Man (id:1290093)

仇小梅 Siu-Mui Chau (id:1280537)

谭英群 Popeye Ying Kwan Tam (id:1330601)

付璐璐 Lulu Fu (id:1401800)

臧溪川 Xichuan Zang (id:1328672)

傅闱玮 Weiwei Fu (id:1430974)

梁郁 Yu Liang (id:1442414)

刘国楠 Guonan Liu (id:1365631)

涂灏 Hao Tu (id:1311569)

陶经 Jing Tao (id:1298913)

苏珊·詹杜 Suzanne Jandu (id:1287580)

约翰·莱昂蒂 John Leonti (id:1303128)

克里斯汀·王 Christine Wong (id:1304145)

亨里克·霍姆伯格 Henrik Holmberg (id:1305642)

钟智行 Frankie Chung (id:1308985)

梁伟杰 Wai Kit Leung (id:1311572)

梁耀丰 Yiu Fung Leung (id:1330643)

史焯华 Simon Cheuk Wah Sze (id:1330657)

洪毓良 Franco Yuk Leung Hung (id:1330665)

克里斯·威尔逊 Chris Wilson (id:1185167)

安吉拉·巴松 Angela Barson (id:1278010)

马特·福斯特 Matt Foster (id:1242745)

马丁·德雷克 Martyn Drake (id:1223541)

约翰·霍伊·史密斯 John Van Hoey Smith (id:1197799)

斯图尔特·布伦 Stuart Bullen (id:1232403)

丹·阿什顿 Dan Ashton (id:1187304)

加里·马歇尔 Gary Marshall (id:1213505)

程小东 Siu-Tung Ching (id:1280664)

李才 Cai Li (id:1377516)

徐鸥 Ou Xu (id:1397778)

◎标 签 张艺谋 / 周杰伦 / 巩俐 / 满城尽带黄金甲 / 周润发 / 中国 / 中国电影 / 大陆

◎简 介

王(周润发 饰)领兵造反,夺得了王位。他为了更加巩固自己的地位,赶走了前妻,迎娶了梁国的公主、现任王后(巩俐 饰),以得到梁王的支持。王子元祥(刘烨 饰)是前妻留下的孩子,王跟现任王后也生下了元杰(周杰伦 饰)、元成(秦俊杰 饰)。王后却与元祥有着不可告人的乱伦关系,王一直念念不忘自己的前妻,对外声称前妻已死。王后一直野心勃勃,元杰得知父亲逼着母亲吃毒药,就答应了母亲在重阳节的那天发起兵变,腥风血雨的战争也开始了……

◎获奖情况 (共19项)

第79届奥斯卡金像奖 (2007)

最佳服装设计(提名)

└──奚仲文 (id:1275027)

第26届香港电影金像奖 (2007)

最佳电影(提名)

最佳导演(提名)

└──张艺谋 (id:1054398)

最佳男主角(提名)

└──周润发 (id:1044899)

最佳女主角

└──巩俐 (id:1035641)

最佳男配角(提名)

最佳摄影(提名)

└──赵小丁 (id:1274347)

最佳美术指导

└──霍廷霄 (id:1287179)

最佳服装造型设计

└──奚仲文 (id:1275027)

最佳动作设计(提名)

└──程小东 (id:1280664)

最佳原创电影音乐(提名)

└──梅林茂 (id:1005471)

最佳原创电影歌曲

└──周杰伦 (id:1048000)

最佳音响效果(提名)

最佳视觉效果(提名)

第29届大众电影百花奖 (2008)

最佳男配角(提名)

└──周杰伦 (id:1048000)

第1届亚洲电影大奖 (2007)

最佳电影(提名)

最佳女主角(提名)

└──巩俐 (id:1035641)

最佳视觉效果(提名)

第7届华语电影传媒大奖 (2007)

最佳女主角(提名)

└──巩俐 (id:1035641)

  1. ##### MediaInfo ######

  2. General

  3. Unique ID : 284323411642098323851538213647589143564 (0xD5E6B27E22DD8820168E0C7B851D740C)

  4. Complete name : Curse.of.the[email protected]MKVHome.mkv

  5. Format : Matroska

  6. Format version : Version 4

  7. File size : 12.6 GiB

  8. Duration : 1 h 54 min

  9. Overall bit rate mode : Variable

  10. Overall bit rate : 15.9 Mb/s

  11. Encoded date : UTC 2021-12-05 10:49:44

  12. Writing application : mkvmerge v49.0.0 ('Sick Of Losing Soulmates') 64-bit

  13. Writing library : libebml v1.4.0 + libmatroska v1.6.1


  14. Video

  15. ID : 1

  16. Format : HEVC

  17. Format/Info : High Efficiency Video Coding

  18. Format profile : Main [email protected]@High

  19. Codec ID : V_MPEGH/ISO/HEVC

  20. Duration : 1 h 54 min

  21. Bit rate : 11.7 Mb/s

  22. Width : 1 920 pixels

  23. Height : 814 pixels

  24. Display aspect ratio : 2.35:1

  25. Frame rate mode : Constant

  26. Frame rate : 23.976 (24000/1001/53354) FPS

  27. Color space : YUV

  28. Chroma subsampling : 4:2:0

  29. Bit depth : 10 bits

  30. Bits/(Pixel*Frame) : 0.312

  31. Stream size : 9.32 GiB (74%)

  32. Title : HEVC, [email protected]@High, 24/1.001 fps @ 11703 kbps

  33. Writing library : x265 3.4+14-gd419c7152:[Windows][GCC 10.2.0][64 bit] 10bit

  34. Encoding settings : cpuid=533541111039 / frame-threads=4 / numa-pools=16 / wpp / pmode / pme / no-psnr / no-ssim / log-level=2 / input-csp=1 / input-res=1920x814 / interlace=0 / total-frames=164029 / level-idc=51 / high-tier=1 / uhd-bd=0 / ref=5 / no-allow-non-conformance / no-repeat-headers / annexb / no-aud / no-hrd / info / hash=0 / no-temporal-layers / open-gop / min-keyint=24 / keyint=240 / gop-lookahead=0 / bframes=6 / b-adapt=2 / b-pyramid / bframe-bias=0 / rc-lookahead=40 / lookahead-slices=0 / NTMzNTQ=uuDQuD2mJt9fsCf / scenecut=40 / hist-scenecut=0 / radl=0 / no-splice / no-intra-refresh / ctu=32 / min-cu-size=8 / no-rect / no-amp / max-tu-size=32 / tu-inter-depth=3 / tu-intra-depth=3 / limit-tu=4 / rdoq-level=2 / dynamic-rd=0.00 / no-ssim-rd / signhide / no-tskip / nr-intra=0 / nr-inter=0 / no-constrained-intra / no-strong-intra-smoothing / max-merge=4 / limit-refs=1 / limit-modes / me=3 / subme=4 / merange=25 / temporal-mvp / no-frame-dup / no-hme / weightp / weightb / no-analyze-src-pics / deblock=-3:-3 / no-sao / no-sao-non-deblock / rd=6 / selective-sao=0 / no-early-skip / rskip / no-fast-intra / no-tskip-fast / no-cu-lossless / b-intra / no-splitrd-skip / rdpenalty=0 / psy-rd=2.00 / psy-rdoq=1.00 / no-rd-refine / no-lossless / cbqpoffs=0 / crqpoffs=0 / rc=crf / crf=19.5 / qcomp=0.65 / qpstep=4 / stats-write=0 / stats-read=0 / vbv-maxrate=80000 / vbv-bufsize=80000 / vbv-init=0.9 / crf-max=0.0 / crf-min=0.0 / ipratio=1.40 / pbratio=1.30 / aq-mode=2 / aq-strength=0.85 / cutree / zone-count=0 / no-strict-cbr / qg-size=32 / no-rc-grain / qpmax=69 / qpmin=0 / no-const-vbv / sar=1 / overscan=0 / videoformat=5 / range=0 / colorprim=1 / transfer=1 / colormatrix=1 / chromaloc=0 / display-window=0 / cll=0,0 / min-luma=0 / max-luma=1023 / log2-max-poc-lsb=8 / vui-timing-info / vui-hrd-info / slices=1 / no-opt-qp-pps / no-opt-ref-list-length-pps / no-multi-pass-opt-rps / scenecut-bias=0.05 / hist-threshold=0.03 / no-opt-cu-delta-qp / no-aq-motion / no-hdr10 / no-hdr10-opt / no-dhdr10-opt / no-idr-recovery-sei / analysis-reuse-level=0 / analysis-save-reuse-level=0 / analysis-load-reuse-level=0 / scale-factor=0 / refine-intra=0 / refine-inter=0 / refine-mv=1 / refine-ctu-distortion=0 / no-limit-sao / ctu-info=0 / no-lowpass-dct / refine-analysis-type=0 / copy-pic=1 / max-ausize-factor=1.0 / no-dynamic-refine / no-single-sei / no-hevc-aq / no-svt / no-field / qp-adaptation-range=1.00 / no-scenecut-aware-qpconformance-window-offsets / right=0 / bottom=0 / NTMzNTQ= / decoder-max-rate=0

  35. Language : English

  36. Default : Yes

  37. Forced : No

  38. Color range : Limited

  39. Color primaries : BT.709

  40. Transfer characteristics : BT.709

  41. Matrix coefficients : BT.709


  42. Audio

  43. ID : 2

  44. Format : DTS XLL

  45. Format/Info : Digital Theater Systems

  46. Commercial name : DTS-HD Master Audio

  47. Codec ID : A_DTS

  48. Duration : 1 h 54 min

  49. Bit rate mode : Variable

  50. Bit rate : 4 148 kb/s

  51. Channel(s) : 6 channels

  52. Channel layout : C L R Ls Rs LFE

  53. Sampling rate : 48.0 kHz

  54. Frame rate : 93.750 FPS (512 SPF)

  55. Bit depth : 24 bits

  56. Compression mode : Lossless

  57. Stream size : 3.30 GiB (26%)

  58. Title : Mandarin DTS-HD Master Audio 5.1 @ 4148 kbps

  59. Language : Chinese

  60. Default : Yes

  61. Forced : No


  62. Text #1

  63. ID : 3

  64. Format : PGS

  65. Codec ID : S_HDMV/PGS

  66. Codec ID/Info : Picture based subtitle format used on BDs/HD-DVDs

  67. Duration : 1 h 44 min

  68. Bit rate : 12.4 kb/s

  69. Count of elements : 1428

  70. Stream size : 9.28 MiB (0%)

  71. Title : Eng/SUP

  72. Language : English

  73. Default : No

  74. Forced : No


  75. Text #2

  76. ID : 4

  77. Format : PGS

  78. Codec ID : S_HDMV/PGS

  79. Codec ID/Info : Picture based subtitle format used on BDs/HD-DVDs

  80. Duration : 1 h 47 min

  81. Bit rate : 7 819 b/s

  82. Count of elements : 1654

  83. Stream size : 6.02 MiB (0%)

  84. Title : Chs/SUP 简体

  85. Language : Chinese

  86. Default : Yes

  87. Forced : No


  88. Text #3

  89. ID : 5

  90. Format : PGS

  91. Codec ID : S_HDMV/PGS

  92. Codec ID/Info : Picture based subtitle format used on BDs/HD-DVDs

  93. Duration : 1 h 47 min

  94. Bit rate : 8 099 b/s

  95. Count of elements : 1654

  96. Stream size : 6.23 MiB (0%)

  97. Title : Cht/SUP 繁体

  98. Language : Chinese

  99. Default : No

  100. Forced : No


  101. Menu

  102. 00:00:00.000 : en:第 01 章

  103. 00:10:51.150 : en:第 02 章

  104. 00:19:31.087 : en:第 03 章

  105. 00:32:01.920 : en:第 04 章

  106. 00:44:23.828 : en:第 05 章

  107. 00:55:16.188 : en:第 06 章

  108. 01:05:15.703 : en:第 07 章

  109. 01:13:44.837 : en:第 08 章

  110. 01:27:42.382 : en:第 09 章

  111. 01:34:28.246 : en:第 10 章

  112. 01:43:40.256 : en:第 11 章

  113. 01:48:48.731 : en:第 12 章


文件下载


除非特别注明,本文『满城尽带黄金甲[国语音轨/简繁字幕].Curse.of.the.Golden.Flower.2006.BluRay.1080p.DTS-HD.MA.5.1.x265.10bit 12.65GB』来源于互联网机器人自动抓取,非本站原创。 浮游电影网不对本文拥有版权,如有侵犯,请联系邮箱:fuyouu#yandex.com[#换成@]投诉。我们会在15个工作日内删除。 但烦请转载时请标明出处:“本文转载于『浮游电影网』,原文地址:https://www.fuyouu.com/19174.html

评论吧骚年!

发表你的见解   

昵称*

E-mail*(建议输入,以便收到博主回复的提示邮件)

验证码*

您可以使用eMule或eMule Mod(Windows)、aMule(Win、Linux、Mac)等软件下载eD2k链接。。
eMule收藏集(.emulecollection)文件是您选中的所有链接的列表文件。eMule可以直接下载它们。
按住SHIFT键选择可以选中多个选择框。
可用文件名和大小选择器来选择文件。
文件名选择器帮您根据文件名称或后缀来选择文件。不分大小写。
符号使用:
和:空格( )、+
不包含:-
或:|
转义:一对英文引号("");
匹配开头:^
匹配结尾:$
例如:
选中所有名称中包含有“eMule”或“0.49c”字眼,但不包含有“exe”字眼的:emule|0.49c -exe
选中所有名称的开头是“eMule”,结尾是“0.49c”的:^emule 0.49c$
选中所有名称中带有“eMule 0.49c”的(必须是“eMule 0.49c”,中间没有别的字符,不能是“eMule fake 0.49c”),需要转义:"emule 0.49c"
大小选择器帮您根据文件大小选择文件。