当前位置: 首页 >> 欧美电影 >> 圣诞男孩[国语配音/中文字幕].A.Boy.Called.Christmas.2021.1080p.NF.WEB-DL.DDP5.1.Atmos.x264-btbt9527.com 3.88GB >> 正文

圣诞男孩[国语配音/中文字幕].A.Boy.Called.Christmas.2021.1080p.NF.WEB-DL.DDP5.1.Atmos.x264-btbt9527.com 3.88GB

2021年12月06日 22:51:22     电影发布:来源于网络     电影分类:欧美电影     评论(0)    

圣诞男孩[国语配音/中文字幕].A.Boy.Called.Christmas.2021.1080p.NF.WEB DL.DDP5.1.Atmos.x264 btbt9527.com 3.88GB 家庭片 奇幻片 冒险片 剧情片 欧美电影  第1张

◎译 名 圣诞男孩

◎片 名 A Boy Called Christmas

◎年 代 2021

◎产 地 英国

◎类 别 剧情 / 家庭 / 奇幻 / 冒险

◎语 言 英语

◎上映日期 2021-11-24(美国网络)

◎IMDb链接 https://www.imdb.com/title/tt10187208/

◎豆瓣链接 https://movie.douban.com/subject/33411411/

◎导 演 吉尔·克兰 Gil Kenan (id:1028045)

◎编 剧 欧·帕克 Ol Parker (id:1319911)

吉尔·克兰 Gil Kenan (id:1028045)

◎演 员 玛吉·史密斯 Maggie Smith (id:1013798)

亨利·劳福 Henry Lawfull (id:1462473)

莎莉·霍金斯 Sally Hawkins (id:1044915)

克里斯汀·韦格 Kristen Wiig (id:1022588)

米希尔·赫伊斯曼 Michiel Huisman (id:1009362)

托比·琼斯 Toby Jones (id:1107884)

斯戴芬·莫昌特 Stephen Merchant (id:1036473)

吉姆·布劳德本特 Jim Broadbent (id:1019049)

佐伊·玛格丽特·科莱蒂 Zoe Margaret Colletti (id:1345006)

鲁内·泰特 Rune Temte (id:1412749)

印迪卡·沃森 Indica Watson (id:1396498)

彼得·霍斯金 Peter Hosking (id:1097845)

肯德里克·昂 Kendrick Ong (id:1266073)

崔西·奥斯蒙德 Trish Osmond (id:1443755)

达里奥·马里安奈利 Dario Marianelli (id:1018392)

◎标 签 英国 / 奇幻 / 2021 / 英国电影 / 玛吉·史密斯 / 莎莉·霍金斯 / 改编 / 冒险

◎简 介

吉姆·布劳德本特、克里斯汀·韦格、莎莉·霍金斯、玛吉·史密斯加盟影片[圣诞男孩](A Boy Called Christmas,暂译),其他卡司包括佐伊·玛格丽特·科莱蒂([狂野生活])、托比·琼斯([金发缪斯])、米契尔·哈思曼(《鬼入侵》)等。吉尔·克兰([怪兽屋])执导,吉尔与欧·帕克([涉外大饭店])共同操刀剧本。

故事改编自马特·海格同名畅销书,讲述11岁的尼古拉斯和父亲住在一起,尼古拉斯最好的伙伴是一只小老鼠。有一天,父亲接到一项神秘的任务,不得不离家远行。姑妈来到家里照顾尼古拉斯。姑妈并不喜欢他,而且把尼古拉斯妈妈留下的唯一的玩具毁掉了。尼古拉斯和小老鼠离家出走,去寻找父亲。他在路上认识了一头驯鹿,彼此成为了朋友。他骑着驯鹿,开始了寻找“妖精堡”的奇幻之旅。

影片目前已开拍。Studiocanal负责影片澳大利亚、中国、法国、新西兰、英...

  1. ##### MediaInfo ######

  2. General

  3. Unique ID : 117005818748862611840034797045762528634 (0x580680418278B498B0B04696A5E8957A)

  4. Complete name : A.Bo[email protected]MKVHome.mkv

  5. Format : Matroska

  6. Format version : Version 4

  7. File size : 3.88 GiB

  8. Duration : 1 h 46 min

  9. Overall bit rate mode : Variable

  10. Overall bit rate : 5 202 kb/s

  11. Movie name : RAB

  12. Encoded date : UTC 2021-12-06 02:12:25

  13. Writing application : mkvmerge v44.0.0 ('Domino') 64-bit

  14. Writing library : libebml v1.3.10 + libmatroska v1.5.2


  15. Video

  16. ID : 1

  17. Format : AVC

  18. Format/Info : Advanced Video Codec

  19. Format profile : [email protected]

  20. Format settings : CABAC / 3 Ref Frames

  21. Format settings, CABAC : Yes

  22. Format settings, Reference frames : 3 frames

  23. Codec ID : V_MPEG4/ISO/AVC

  24. Duration : 1 h 46 min

  25. Bit rate mode : Variable

  26. Bit rate : 3 789 kb/s

  27. Nominal bit rate : 4 870 kb/s

  28. Maximum bit rate : 7 305 kb/s

  29. Width : 1 920 pixels

  30. Height : 1 080 pixels

  31. Display aspect ratio : 16:9

  32. Frame rate mode : Constant

  33. Frame rate : 24.000 FPS

  34. Color space : YUV

  35. Chroma subsampling : 4:2:0

  36. Bit depth : 8 bits

  37. Scan type : Progressive

  38. Bits/(Pixel*Frame) : 0.076

  39. Stream size : 2.83 GiB (73%)

  40. Writing library : x264 core 148 r2724 dbe0335

  41. Encoding settings : cabac=1 / ref=3 / deblock=1:0:0 / analyse=0x1:0x111 / me=umh / subme=10 / psy=1 / psy_rd=1.00:0.00 / mixed_ref=1 / me_range=24 / chroma_me=1 / trellis=2 / 8x8dct=0 / cqm=0 / deadzone=21,11 / fast_pskip=1 / chroma_qp_offset=-2 / threads=6 / lookahead_threads=1 / sliced_threads=0 / nr=0 / decimate=1 / interlaced=0 / NTMzNTQ= / bluray_compat=0 / stitchable=1 / constrained_intra=0 / bframes=2 / b_pyramid=0 / b_adapt=2 / b_bias=0 / direct=3 / weightb=1 / open_gop=0 / weightp=2 / keyint=250 / keyint_min=24 / scenecut=0 / intra_refresh=0 / rc_lookahead=48 / rc=2pass / mbtree=1 / bitrate=4870 / ratetol=1.0 / qcomp=0.50 / qpmin=6 / qpmax=51 / qpstep=4 / cplxblur=20.0 / qblur=0.5 / vbv_maxrate=7305 / vbv_bufsize=9740 / nal_hrd=vbr / filler=0 / NTMzNTQ=LmsMAP37EqsCpk / ip_ratio=1.40 / aq=1:1.00

  42. Default : Yes

  43. Forced : No


  44. Audio #1

  45. ID : 2

  46. Format : E-AC-3 JOC

  47. Format/Info : Enhanced AC-3 with Joint Object Coding

  48. Commercial name : Dolby Digital Plus with Dolby Atmos

  49. Codec ID : A_EAC3

  50. Duration : 1 h 46 min

  51. Bit rate mode : Constant

  52. Bit rate : 768 kb/s

  53. Channel(s) : 6 channels

  54. Channel layout : L R C LFE Ls Rs

  55. Sampling rate : 48.0 kHz

  56. Frame rate : 31.250 FPS (1536 SPF)

  57. Compression mode : Lossy

  58. Stream size : 586 MiB (15%)

  59. Title : English

  60. Language : English

  61. Service kind : Complete Main

  62. Default : No

  63. Forced : No

  64. Complexity index : 16

  65. Number of dynamic objects : 15

  66. Bed channel count : 1 channel

  67. Bed channel configuration : LFE


  68. Audio #2

  69. ID : 3

  70. Format : E-AC-3

  71. Format/Info : Enhanced AC-3

  72. Commercial name : Dolby Digital Plus

  73. Codec ID : A_EAC3

  74. Duration : 1 h 46 min

  75. Bit rate mode : Constant

  76. Bit rate : 640 kb/s

  77. Channel(s) : 6 channels

  78. Channel layout : L R C LFE Ls Rs

  79. Sampling rate : 48.0 kHz

  80. Frame rate : 31.250 FPS (1536 SPF)

  81. Compression mode : Lossy

  82. Stream size : 489 MiB (12%)

  83. Title : Mandarin

  84. Language : Chinese

  85. Service kind : Complete Main

  86. Default : Yes

  87. Forced : No


  88. Text #1

  89. ID : 4

  90. Format : UTF-8

  91. Codec ID : S_TEXT/UTF8

  92. Codec ID/Info : UTF-8 Plain Text

  93. Duration : 1 h 41 min

  94. Bit rate : 88 b/s

  95. Count of elements : 1638

  96. Stream size : 66.3 KiB (0%)

  97. Title : English

  98. Language : English

  99. Default : No

  100. Forced : No


  101. Text #2

  102. ID : 5

  103. Format : UTF-8

  104. Codec ID : S_TEXT/UTF8

  105. Codec ID/Info : UTF-8 Plain Text

  106. Duration : 1 h 42 min

  107. Bit rate : 88 b/s

  108. Count of elements : 1239

  109. Stream size : 66.6 KiB (0%)

  110. Title : Arabic

  111. Language : Arabic

  112. Default : No

  113. Forced : No


  114. Text #3

  115. ID : 6

  116. Format : UTF-8

  117. Codec ID : S_TEXT/UTF8

  118. Codec ID/Info : UTF-8 Plain Text

  119. Duration : 1 h 42 min

  120. Bit rate : 53 b/s

  121. Count of elements : 1224

  122. Stream size : 40.1 KiB (0%)

  123. Title : Chinese Simplified

  124. Language : Chinese

  125. Default : No

  126. Forced : No


  127. Text #4

  128. ID : 7

  129. Format : UTF-8

  130. Codec ID : S_TEXT/UTF8

  131. Codec ID/Info : UTF-8 Plain Text

  132. Duration : 1 h 42 min

  133. Bit rate : 55 b/s

  134. Count of elements : 1251

  135. Stream size : 41.6 KiB (0%)

  136. Title : Chinese Traditional

  137. Language : Chinese

  138. Default : No

  139. Forced : No


  140. Text #5

  141. ID : 8

  142. Format : UTF-8

  143. Codec ID : S_TEXT/UTF8

  144. Codec ID/Info : UTF-8 Plain Text

  145. Duration : 1 h 42 min

  146. Bit rate : 44 b/s

  147. Count of elements : 1225

  148. Stream size : 33.4 KiB (0%)

  149. Title : Croatian

  150. Language : Croatian

  151. Default : No

  152. Forced : No


  153. Text #6

  154. ID : 9

  155. Format : UTF-8

  156. Codec ID : S_TEXT/UTF8

  157. Codec ID/Info : UTF-8 Plain Text

  158. Duration : 1 h 42 min

  159. Bit rate : 48 b/s

  160. Count of elements : 1183

  161. Stream size : 36.7 KiB (0%)

  162. Title : Czech

  163. Language : Czech

  164. Default : No

  165. Forced : No


  166. Text #7

  167. ID : 10

  168. Format : UTF-8

  169. Codec ID : S_TEXT/UTF8

  170. Codec ID/Info : UTF-8 Plain Text

  171. Duration : 1 h 42 min

  172. Bit rate : 47 b/s

  173. Count of elements : 1188

  174. Stream size : 35.8 KiB (0%)

  175. Title : Danish

  176. Language : Danish

  177. Default : No

  178. Forced : No


  179. Text #8

  180. ID : 11

  181. Format : UTF-8

  182. Codec ID : S_TEXT/UTF8

  183. Codec ID/Info : UTF-8 Plain Text

  184. Duration : 1 h 42 min

  185. Bit rate : 48 b/s

  186. Count of elements : 1090

  187. Stream size : 36.7 KiB (0%)

  188. Title : Dutch

  189. Language : Dutch

  190. Default : No

  191. Forced : No


  192. Text #9

  193. ID : 12

  194. Format : UTF-8

  195. Codec ID : S_TEXT/UTF8

  196. Codec ID/Info : UTF-8 Plain Text

  197. Duration : 48 min 50 s

  198. Bit rate : 49 b/s

  199. Count of elements : 535

  200. Stream size : 17.7 KiB (0%)

  201. Title : Finnish

  202. Language : Finnish

  203. Default : No

  204. Forced : No


  205. Text #10

  206. ID : 13

  207. Format : UTF-8

  208. Codec ID : S_TEXT/UTF8

  209. Codec ID/Info : UTF-8 Plain Text

  210. Duration : 5 min 42 s

  211. Bit rate : 93 b/s

  212. Count of elements : 80

  213. Stream size : 3.92 KiB (0%)

  214. Title : Greek

  215. Language : Greek

  216. Default : No

  217. Forced : No


  218. Text #11

  219. ID : 14

  220. Format : UTF-8

  221. Codec ID : S_TEXT/UTF8

  222. Codec ID/Info : UTF-8 Plain Text

  223. Duration : 1 h 42 min

  224. Bit rate : 79 b/s

  225. Count of elements : 1204

  226. Stream size : 59.4 KiB (0%)

  227. Title : Hebrew

  228. Language : Hebrew

  229. Default : No

  230. Forced : No


  231. Text #12

  232. ID : 15

  233. Format : UTF-8

  234. Codec ID : S_TEXT/UTF8

  235. Codec ID/Info : UTF-8 Plain Text

  236. Duration : 1 h 42 min

  237. Bit rate : 50 b/s

  238. Count of elements : 1210

  239. Stream size : 37.9 KiB (0%)

  240. Title : Hungarian

  241. Language : Hungarian

  242. Default : No

  243. Forced : No


  244. Text #13

  245. ID : 16

  246. Format : UTF-8

  247. Codec ID : S_TEXT/UTF8

  248. Codec ID/Info : UTF-8 Plain Text

  249. Duration : 1 h 42 min

  250. Bit rate : 48 b/s

  251. Count of elements : 1202

  252. Stream size : 36.7 KiB (0%)

  253. Title : Indonesian

  254. Language : Indonesian

  255. Default : No

  256. Forced : No


  257. Text #14

  258. ID : 17

  259. Format : UTF-8

  260. Codec ID : S_TEXT/UTF8

  261. Codec ID/Info : UTF-8 Plain Text

  262. Duration : 1 h 42 min

  263. Bit rate : 50 b/s

  264. Count of elements : 1200

  265. Stream size : 37.8 KiB (0%)

  266. Title : Italian

  267. Language : Italian

  268. Default : No

  269. Forced : No


  270. Text #15

  271. ID : 18

  272. Format : UTF-8

  273. Codec ID : S_TEXT/UTF8

  274. Codec ID/Info : UTF-8 Plain Text

  275. Duration : 1 h 42 min

  276. Bit rate : 50 b/s

  277. Count of elements : 1403

  278. Stream size : 37.8 KiB (0%)

  279. Title : Japanese

  280. Language : Japanese

  281. Default : No

  282. Forced : No


  283. Text #16

  284. ID : 19

  285. Format : UTF-8

  286. Codec ID : S_TEXT/UTF8

  287. Codec ID/Info : UTF-8 Plain Text

  288. Duration : 1 h 42 min

  289. Bit rate : 61 b/s

  290. Count of elements : 1241

  291. Stream size : 46.3 KiB (0%)

  292. Title : Korean

  293. Language : Korean

  294. Default : No

  295. Forced : No


  296. Text #17

  297. ID : 20

  298. Format : UTF-8

  299. Codec ID : S_TEXT/UTF8

  300. Codec ID/Info : UTF-8 Plain Text

  301. Duration : 1 h 42 min

  302. Bit rate : 49 b/s

  303. Count of elements : 1196

  304. Stream size : 36.9 KiB (0%)

  305. Title : Malay

  306. Language : Malay

  307. Default : No

  308. Forced : No


  309. Text #18

  310. ID : 21

  311. Format : UTF-8

  312. Codec ID : S_TEXT/UTF8

  313. Codec ID/Info : UTF-8 Plain Text

  314. Duration : 1 h 42 min

  315. Bit rate : 46 b/s

  316. Count of elements : 1110

  317. Stream size : 35.3 KiB (0%)

  318. Title : Norwegian Bokmal

  319. Language : Norwegian Bokmal

  320. Default : No

  321. Forced : No


  322. Text #19

  323. ID : 22

  324. Format : UTF-8

  325. Codec ID : S_TEXT/UTF8

  326. Codec ID/Info : UTF-8 Plain Text

  327. Duration : 1 h 42 min

  328. Bit rate : 48 b/s

  329. Count of elements : 1162

  330. Stream size : 36.7 KiB (0%)

  331. Title : Polish

  332. Language : Polish

  333. Default : No

  334. Forced : No


  335. Text #20

  336. ID : 23

  337. Format : UTF-8

  338. Codec ID : S_TEXT/UTF8

  339. Codec ID/Info : UTF-8 Plain Text

  340. Duration : 1 h 42 min

  341. Bit rate : 50 b/s

  342. Count of elements : 1212

  343. Stream size : 37.9 KiB (0%)

  344. Title : Portuguese

  345. Language : Portuguese

  346. Default : No

  347. Forced : No


  348. Text #21

  349. ID : 24

  350. Format : UTF-8

  351. Codec ID : S_TEXT/UTF8

  352. Codec ID/Info : UTF-8 Plain Text

  353. Duration : 1 h 42 min

  354. Bit rate : 48 b/s

  355. Count of elements : 1280

  356. Stream size : 36.7 KiB (0%)

  357. Title : Brazilian Portuguese

  358. Language : Portuguese

  359. Default : No

  360. Forced : No


  361. Text #22

  362. ID : 25

  363. Format : UTF-8

  364. Codec ID : S_TEXT/UTF8

  365. Codec ID/Info : UTF-8 Plain Text

  366. Duration : 1 h 42 min

  367. Bit rate : 56 b/s

  368. Count of elements : 1162

  369. Stream size : 42.8 KiB (0%)

  370. Title : Romanian

  371. Language : Romanian

  372. Default : No

  373. Forced : No


  374. Text #23

  375. ID : 26

  376. Format : UTF-8

  377. Codec ID : S_TEXT/UTF8

  378. Codec ID/Info : UTF-8 Plain Text

  379. Duration : 1 h 42 min

  380. Bit rate : 78 b/s

  381. Count of elements : 1212

  382. Stream size : 59.1 KiB (0%)

  383. Title : Russian

  384. Language : Russian

  385. Default : No

  386. Forced : No


  387. Text #24

  388. ID : 27

  389. Format : UTF-8

  390. Codec ID : S_TEXT/UTF8

  391. Codec ID/Info : UTF-8 Plain Text

  392. Duration : 1 h 42 min

  393. Bit rate : 49 b/s

  394. Count of elements : 1222

  395. Stream size : 37.3 KiB (0%)

  396. Title : Spanish

  397. Language : Spanish

  398. Default : No

  399. Forced : No


  400. Text #25

  401. ID : 28

  402. Format : UTF-8

  403. Codec ID : S_TEXT/UTF8

  404. Codec ID/Info : UTF-8 Plain Text

  405. Duration : 1 h 42 min

  406. Bit rate : 46 b/s

  407. Count of elements : 1381

  408. Stream size : 34.8 KiB (0%)

  409. Title : European Spanish

  410. Language : Spanish

  411. Default : No

  412. Forced : No


  413. Text #26

  414. ID : 29

  415. Format : UTF-8

  416. Codec ID : S_TEXT/UTF8

  417. Codec ID/Info : UTF-8 Plain Text

  418. Duration : 1 h 42 min

  419. Bit rate : 47 b/s

  420. Count of elements : 1119

  421. Stream size : 35.9 KiB (0%)

  422. Title : Swedish

  423. Language : Swedish

  424. Default : No

  425. Forced : No


  426. Text #27

  427. ID : 30

  428. Format : UTF-8

  429. Codec ID : S_TEXT/UTF8

  430. Codec ID/Info : UTF-8 Plain Text

  431. Duration : 1 h 42 min

  432. Bit rate : 137 b/s

  433. Count of elements : 1210

  434. Stream size : 103 KiB (0%)

  435. Title : Thai

  436. Language : Thai

  437. Default : No

  438. Forced : No


  439. Text #28

  440. ID : 31

  441. Format : UTF-8

  442. Codec ID : S_TEXT/UTF8

  443. Codec ID/Info : UTF-8 Plain Text

  444. Duration : 1 h 42 min

  445. Bit rate : 49 b/s

  446. Count of elements : 1313

  447. Stream size : 37.5 KiB (0%)

  448. Title : Turkish

  449. Language : Turkish

  450. Default : No

  451. Forced : No


  452. Text #29

  453. ID : 32

  454. Format : UTF-8

  455. Codec ID : S_TEXT/UTF8

  456. Codec ID/Info : UTF-8 Plain Text

  457. Duration : 1 h 42 min

  458. Bit rate : 78 b/s

  459. Count of elements : 1178

  460. Stream size : 59.3 KiB (0%)

  461. Title : Ukrainian

  462. Language : Ukrainian

  463. Default : No

  464. Forced : No




复制代码



文件下载


除非特别注明,本文『圣诞男孩[国语配音/中文字幕].A.Boy.Called.Christmas.2021.1080p.NF.WEB-DL.DDP5.1.Atmos.x264-btbt9527.com 3.88GB』来源于互联网机器人自动抓取,非本站原创。 浮游电影网不对本文拥有版权,如有侵犯,请联系邮箱:fuyouu#yandex.com[#换成@]投诉。我们会在15个工作日内删除。 但烦请转载时请标明出处:“本文转载于『浮游电影网』,原文地址:https://www.fuyouu.com/19173.html

评论吧骚年!

发表你的见解   

昵称*

E-mail*(建议输入,以便收到博主回复的提示邮件)

验证码*

您可以使用eMule或eMule Mod(Windows)、aMule(Win、Linux、Mac)等软件下载eD2k链接。。
eMule收藏集(.emulecollection)文件是您选中的所有链接的列表文件。eMule可以直接下载它们。
按住SHIFT键选择可以选中多个选择框。
可用文件名和大小选择器来选择文件。
文件名选择器帮您根据文件名称或后缀来选择文件。不分大小写。
符号使用:
和:空格( )、+
不包含:-
或:|
转义:一对英文引号("");
匹配开头:^
匹配结尾:$
例如:
选中所有名称中包含有“eMule”或“0.49c”字眼,但不包含有“exe”字眼的:emule|0.49c -exe
选中所有名称的开头是“eMule”,结尾是“0.49c”的:^emule 0.49c$
选中所有名称中带有“eMule 0.49c”的(必须是“eMule 0.49c”,中间没有别的字符,不能是“eMule fake 0.49c”),需要转义:"emule 0.49c"
大小选择器帮您根据文件大小选择文件。