当前位置: 首页 >> 国产电影 >> 绣春刀II修罗战场[国语音轨/中文字幕].Brotherhood.of.Blades.II.The.Infernal.Battlefield.2017.UHD.2160p.x265.10bit.HDR >> 正文

绣春刀II修罗战场[国语音轨/中文字幕].Brotherhood.of.Blades.II.The.Infernal.Battlefield.2017.UHD.2160p.x265.10bit.HDR

2021年12月06日 08:40:35     电影发布:来源于网络     电影分类:国产电影     评论(0)    

绣春刀II修罗战场[国语音轨/中文字幕].Brotherhood.of.Blades.II.The.Infernal.Battlefield.2017.UHD.2160p.x265.10bit.HDR 古装片 武侠片 动作片 剧情片 国产电影  第1张

◎译 名 绣春刀II:修罗战场 / 绣春刀2:修罗战场 / 绣春刀:修罗场 / 绣春刀前传 / Brotherhood of Blades II: The Infernal Battlefield

◎年 代 2017

◎产 地 中国大陆

◎类 别 剧情 / 动作 / 武侠 / 古装

◎语 言 汉语普通话

◎上映日期 2017-07-19(中国大陆) / 2017-06-18(上海电影节)

◎IMDb链接 https://www.imdb.com/title/tt7055592/

◎豆瓣评分 7.2/10 (368785人评价)

◎豆瓣链接 https://movie.douban.com/subject/26270502/

◎片 长 120分钟

◎导 演 路阳 Yang Lu (id:1321200)

◎编 剧 陈舒 Shu Chen (id:1317594)

路阳 Yang Lu (id:1321200)

禹扬 Yang Yu (id:1377577)

◎演 员 张震 Chen Chang (id:1077991)

杨幂 Mi Yang (id:1052359)

张译 Yi Zhang (id:1274761)

雷佳音 Jiayin Lei (id:1312940)

辛芷蕾 Zhilei Xin (id:1318720)

金士杰 Shih-Chieh King (id:1275482)

刘端端 Duanduan Liu (id:1376605)

武强 Qiang Wu (id:1351719)

杨轶 Yi Yang (id:1342478)

李媛 Yuan Li (id:1314374)

吴晓亮 Xiaoliang Wu (id:1315721)

李洪涛 Hongtao Li (id:1317230)

刘峰超 Fengchao Liu (id:1332806)

袁文康 Wenkang Yuan (id:1274820)

马赫 He Ma (id:1371225)

刘亭作 Tingzuo Liu (id:1326377)

姜晓冲 Xiaozhong Jiang (id:1322077)

陈齐威 Qiwei Chen (id:1376606)

王仁君 Renjun Wang (id:1319834)

周一围 Yiwei Zhou (id:1276085)

郭鑫 Xin Guo (id:1325380)

赵异卓 Yizhuo Zhao (id:1416461)

宁浩 Hao Ning (id:1274265)

邢爱娜 Aina Xing (id:1312749)

覃宏 Hong Qin (id:1275502)

川井宪次 Kenji Kawai (id:1048442)

韩淇名 Qiming Han (id:1445399)

屠亦然 Yiran Tu (id:1370751)

朱利赟 Li Yun Zhu (id:1378386)

梁婷婷 Tingting Liang (id:1359356)

王钢 Gang Wang (id:1330582)

刘晓莎 Xiaosha Liu (id:1425018)

徐建 Eric Xu (id:1382406)

陈洛伊 Chloe Chen (id:1400548)

黄海 Hai Huang (id:1401245)

黄妍 Yan Huang (id:1444659)

◎标 签 武侠 / 古装 / 锦衣卫 / 动作 / 国产 / 2017 / 剧情 / 华语

◎简 介

明天启七年,北镇抚司锦衣卫沈炼(张震 饰)在一次扫除乱党任务中,为救画师北斋(杨幂 饰),将同僚凌云铠(武强 饰)灭口。此后一方面要摆脱来自陆文昭(张译 饰)、裴纶(雷佳音 饰)的质疑与调查,一方面又在神秘女子的要挟下放火烧了锦衣卫经历司。裹挟在乱世,沈炼与北斋情陷其中,却越陷越深。而在这一切的背后,巨大阴谋正暗中布局。众生如蝼蚁囿于修罗场,逆鳞之战,一触即发……

◎获奖情况 (共13项)

第54届台北金马影展 (2017)

金马奖 最佳男配角(提名)

└──雷佳音 (id:1312940)

金马奖 最佳造型设计(提名)

└──梁婷婷 (id:1359356)

金马奖 最佳动作设计

└──桑林 (id:1378391)

金马奖 最佳原创配乐(提名)

└──川井宪次 (id:1048442)

第12届亚洲电影大奖 (2018)

最佳动作电影(提名)

最佳音响(提名)

└──王钢 (id:1330582)

第18届华语电影传媒大奖 (2018)

最佳男配角

└──张译 (id:1274761)

第25届北京大学生电影节 (2018)

最佳编剧奖(提名)

最佳男演员奖

└──张震 (id:1077991)

最佳观赏效果奖(提名)

最受大学生欢迎女演员

└──杨幂 (id:1052359)

第4届豆瓣电影年度榜单 (2017)

评分最高的华语电影(提名)

7月最受关注电影(提名)

  1. ##### MediaInfo ######

  2. General

  3. Unique ID : 208800157298656828897826124535444695550 (0x9D1572918CEF7CEE2E2B4018C64E69FE)

  4. Complete name : Brotherhood.of.Blades.II.Th[email protected]MKVHome.mkv

  5. Format : Matroska

  6. Format version : Version 4

  7. File size : 16.8 GiB

  8. Duration : 1 h 59 min

  9. Overall bit rate mode : Variable

  10. Overall bit rate : 20.1 Mb/s

  11. Encoded date : UTC 2021-12-03 13:36:09

  12. Writing application : mkvmerge v62.0.0 ('Apollo') 64-bit

  13. Writing library : libebml v1.4.2 + libmatroska v1.6.4


  14. Video

  15. ID : 1

  16. Format : HEVC

  17. Format/Info : High Efficiency Video Coding

  18. Format profile : Main [email protected]@High

  19. HDR format : SMPTE ST 2086, HDR10 compatible

  20. Codec ID : V_MPEGH/ISO/HEVC

  21. Duration : 1 h 59 min

  22. Bit rate : 16.4 Mb/s

  23. Width : 3 840 pixels

  24. Height : 1 604 pixels

  25. Display aspect ratio : 2.40:1

  26. Frame rate mode : Constant

  27. Frame rate : 24.000 FPS

  28. Color space : YUV

  29. Chroma subsampling : 4:2:0

  30. Bit depth : 10 bits

  31. Bits/(Pixel*Frame) : 0.111

  32. Stream size : 13.7 GiB (81%)

  33. Writing library : x265 3.3+3-g8f8e332f1+29:[Windows][#Erg`Djh#][@Yuuki] made by @Dongfangbubai

  34. Encoding settings : rc=crf / crf=18.0000 / qcomp=0.70 / qpstep=4 / stats-write=0 / stats-read=0 / vbv-maxrate=160000 / vbv-bufsize=160000 / vbv-init=0.9 / crf-max=0.0 / crf-min=0.0 / no-lossless / no-cu-lossless / aq-mode=3 / aq-strength=0.80 / cbqpoffs=-3 / crqpoffs=-3 / ipratio=1.40 / pbratio=1.30 / psy-rd=2.00 / psy-rdoq=3.00 / deblock=-1:-1 / ref=5 / limit-refs=0 / no-limit-modes / bframes=8 / b-adapt=2 / bframe-bias=0 / b-pyramid / b-intra / weightp / weightb / min-keyint=24 / max-keyint=240 / rc-lookahead=60 / gop-lookahead=0 / NTMzNTQ=uuDQuD2mJt9fsCf / scenecut=40 / hist-scenecut=0 / radl=0 / max-cu-size=32 / min-cu-size=8 / me=3 / subme=4 / merange=25 / rdoq-level=2 / rd=4 / rdpenalty=1 / dynamic-rd=0.00 / no-rd-refine / ----- / no-cutree / no-sao / rect / no-amp / no-open-gop / wpp / pmode / pme / no-psnr / no-ssim / nr-intra=0 / nr-inter=0 / no-constrained-intra / no-strong-intra-smoothing / max-tu-size=32 / tu-inter-depth=2 / tu-intra-depth=2 / limit-tu=0 / qg-size=32 / qpmax=69 / qpmin=0 / ----- / cpuid=533541176575 / frame-threads=6 / numa-pools=54,- / log-level=2 / input-csp=1 / input-res=3840x1604 / interlace=0 / level-idc=0 / high-tier=1 / uhd-bd=0 / no-allow-non-conformance / repeat-headers / no-aud / hrd / info / hash=0 / no-temporal-layers / lookahead-slices=0 / no-splice / no-intra-refresh / no-ssim-rd / signhide / no-tskip / max-merge=3 / temporal-mvp / no-frame-dup / no-hme / no-analyze-src-pics / no-sao-non-deblock / selective-sao=0 / no-early-skip / no-rskip / no-fast-intra / no-tskip-fast / no-splitrd-skip / zone-count=0 / no-strict-cbr / no-rc-grain / no-const-vbv / sar=0 / overscan=0 / videoformat=5 / range=0 / colorprim=9 / transfer=16 / colormatrix=9 / chromaloc=0 / display-window=0 / master-display=G(13250,34500)B(7500,3000)R(34000,16000)WP(15635,16450)L(100000000,0) / cll=8214,233 / min-luma=0 / max-luma=1023 / log2-max-poc-lsb=8 / vui-timing-info / vui-hrd-info / slices=1 / no-opt-qp-pps / no-opt-ref-list-length-pps / no-multi-pass-opt-rps / scenecut-bias=0.05 / hist-threshold=0.01 / no-opt-cu-delta-qp / no-aq-motion / hdr10 / hdr10-opt / no-dhdr10-opt / no-idr-recovery-sei / analysis-reuse-level=0 / analysis-save-reuse-level=0 / analysis-load-reuse-level=0 / scale-factor=0 / refine-intra=0 / refine-inter=0 / refine-mv=1 / refine-ctu-distortion=0 / no-limit-sao / ctu-info=0 / no-lowpass-dct / refine-analysis-type=0 / copy-pic=1 / max-ausize-factor=1.0 / no-dynamic-refine / no-single-sei / no-hevc-aq / no-svt / no-field / qp-adaptation-range=1.00 / no-scenecut-aware-qpconformance-window-offsets / right=0 / bottom=0 / NTMzNTQ=

  35. Default : Yes

  36. Forced : No

  37. Color range : Limited

  38. Color primaries : BT.2020

  39. Transfer characteristics : PQ

  40. Matrix coefficients : BT.2020 non-constant

  41. Mastering display color primaries : Display P3

  42. Mastering display luminance : min: 0.0000 cd/m2, max: 10000 cd/m2

  43. Maximum Content Light Level : 8214 cd/m2

  44. Maximum Frame-Average Light Level : 233 cd/m2


  45. Audio

  46. ID : 2

  47. Format : MLP FBA 16-ch

  48. Format/Info : Meridian Lossless Packing FBA with 16-channel presentation

  49. Commercial name : Dolby TrueHD with Dolby Atmos

  50. Codec ID : A_TRUEHD

  51. Duration : 1 h 59 min

  52. Bit rate mode : Variable

  53. Bit rate : 3 655 kb/s

  54. Maximum bit rate : 5 319 kb/s

  55. Channel(s) : 8 channels

  56. Channel layout : L R C LFE Ls Rs Lb Rb

  57. Sampling rate : 48.0 kHz

  58. Frame rate : 1 200.000 FPS (40 SPF)

  59. Compression mode : Lossless

  60. Stream size : 3.06 GiB (18%)

  61. Language : Chinese

  62. Default : Yes

  63. Forced : No

  64. Number of dynamic objects : 11

  65. Bed channel count : 1 channel

  66. Bed channel configuration : LFE


  67. Text #1

  68. ID : 3

  69. Format : PGS

  70. Muxing mode : zlib

  71. Codec ID : S_HDMV/PGS

  72. Codec ID/Info : Picture based subtitle format used on BDs/HD-DVDs

  73. Duration : 1 h 57 min

  74. Bit rate : 14.1 kb/s

  75. Count of elements : 2261

  76. Stream size : 11.9 MiB (0%)

  77. Language : Chinese

  78. Default : Yes

  79. Forced : No


  80. Text #2

  81. ID : 4

  82. Format : PGS

  83. Muxing mode : zlib

  84. Codec ID : S_HDMV/PGS

  85. Codec ID/Info : Picture based subtitle format used on BDs/HD-DVDs

  86. Duration : 1 h 57 min

  87. Bit rate : 19.1 kb/s

  88. Count of elements : 2261

  89. Stream size : 16.0 MiB (0%)

  90. Language : Chinese

  91. Default : No

  92. Forced : No


  93. Menu

  94. 00:00:00.000 : en:第 01 章

  95. 00:07:13.375 : en:第 02 章

  96. 00:16:30.042 : en:第 03 章

  97. 00:24:31.083 : en:第 04 章

  98. 00:31:07.625 : en:第 05 章

  99. 00:39:50.375 : en:第 06 章

  100. 00:47:54.375 : en:第 07 章

  101. 00:58:28.333 : en:第 08 章

  102. 01:06:15.708 : en:第 09 章

  103. 01:15:46.167 : en:第 10 章

  104. 01:27:37.167 : en:第 11 章

  105. 01:40:00.667 : en:第 12 章




复制代码



文件下载


除非特别注明,本文『绣春刀II修罗战场[国语音轨/中文字幕].Brotherhood.of.Blades.II.The.Infernal.Battlefield.2017.UHD.2160p.x265.10bit.HDR』来源于互联网机器人自动抓取,非本站原创。 浮游电影网不对本文拥有版权,如有侵犯,请联系邮箱:fuyouu#yandex.com[#换成@]投诉。我们会在15个工作日内删除。 但烦请转载时请标明出处:“本文转载于『浮游电影网』,原文地址:https://www.fuyouu.com/19170.html

评论吧骚年!

发表你的见解   

昵称*

E-mail*(建议输入,以便收到博主回复的提示邮件)

验证码*

您可以使用eMule或eMule Mod(Windows)、aMule(Win、Linux、Mac)等软件下载eD2k链接。。
eMule收藏集(.emulecollection)文件是您选中的所有链接的列表文件。eMule可以直接下载它们。
按住SHIFT键选择可以选中多个选择框。
可用文件名和大小选择器来选择文件。
文件名选择器帮您根据文件名称或后缀来选择文件。不分大小写。
符号使用:
和:空格( )、+
不包含:-
或:|
转义:一对英文引号("");
匹配开头:^
匹配结尾:$
例如:
选中所有名称中包含有“eMule”或“0.49c”字眼,但不包含有“exe”字眼的:emule|0.49c -exe
选中所有名称的开头是“eMule”,结尾是“0.49c”的:^emule 0.49c$
选中所有名称中带有“eMule 0.49c”的(必须是“eMule 0.49c”,中间没有别的字符,不能是“eMule fake 0.49c”),需要转义:"emule 0.49c"
大小选择器帮您根据文件大小选择文件。