当前位置: 首页 >> 国产电影 >> 寻龙之幽冥地宫[国语配音/中文字幕].The.Nether.Palace.2021.2160p.WEB-DL.H265.DDP2.0-btbt9527.com 1.75GB >> 正文

寻龙之幽冥地宫[国语配音/中文字幕].The.Nether.Palace.2021.2160p.WEB-DL.H265.DDP2.0-btbt9527.com 1.75GB

2021年12月06日 08:39:06     电影发布:来源于网络     电影分类:国产电影     评论(0)    

寻龙之幽冥地宫[国语配音/中文字幕].The.Nether.Palace.2021.2160p.WEB DL.H265.DDP2.0 btbt9527.com 1.75GB 悬疑片 动作片 国产电影  第1张

◎译 名 寻龙之幽冥地宫

◎年 代 2021

◎产 地 中国大陆

◎类 别 动作 / 悬疑

◎语 言 汉语普通话

◎上映日期 2021-12-05(中国大陆)

◎IMDb链接 https://www.imdb.com/title//

◎豆瓣链接 https://movie.douban.com/subject/35295152/

◎片 长 83分钟

◎演 员 施骏喆 Jason Sze (id:1410992)

苗皓钧 Haizhong Miao (id:1323749)

李明 Ming Li (id:1274928)

杨梓墨 Zimo Yang (id:1323775)

◎简 介

民国初年,燕南大学考古系教授的秦羽偶得藏龙墓线索,立即着手准备组建考古队伍,墨班机关术传人韩阳身手不凡,遂邀请其参加考古挖掘。为筹钱二叔治病,韩阳不顾二叔的劝阻,答应同行。与秦羽相熟的地方军阀李大勋得知此事,主动资助考古。秦羽带韩阳、女儿秦卿、学生杨沫、罗子钦和李大勋之女李冰瑶组队出发。不料,江湖传言葬龙墓有一至宝龙珠,韩羽一行被另外两个盗墓团伙跟踪。经过跋涉,秦羽凭借蛛丝马迹已经接近目的地,却发现了大量的蛇蜕......

  1. ##### MediaInfo ######

  2. General

  3. Unique ID : 224691732698176735832932525988095528571 (0xA90A0DBA6E6EFD78FC636FA87AA10E7B)

  4. Complete name : 寻龙之幽冥地宫[email protected]kv

  5. Format : Matroska

  6. Format version : Version 4

  7. File size : 1.75 GiB

  8. Duration : 1 h 23 min

  9. Overall bit rate : 2 992 kb/s

  10. Encoded date : UTC 2021-12-05 05:42:03

  11. Writing application : mkvmerge v56.1.0 ('My Friend') 64-bit

  12. Writing library : libebml v1.4.2 + libmatroska v1.6.4


  13. Video

  14. ID : 1

  15. Format : HEVC

  16. Format/Info : High Efficiency Video Coding

  17. Format profile : [email protected]@Main

  18. Codec ID : V_MPEGH/ISO/HEVC

  19. Duration : 1 h 23 min

  20. Bit rate : 2 735 kb/s

  21. Width : 3 840 pixels

  22. Height : 1 612 pixels

  23. Display aspect ratio : 2.40:1

  24. Frame rate mode : Constant

  25. Frame rate : 24.000 FPS

  26. Color space : YUV

  27. Chroma subsampling : 4:2:0

  28. Bit depth : 8 bits

  29. Bits/(Pixel*Frame) : 0.018

  30. Stream size : 1.60 GiB (91%)

  31. Default : Yes

  32. Forced : No

  33. Color range : Limited

  34. Color primaries : BT.709

  35. Transfer characteristics : BT.709

  36. Matrix coefficients : BT.709


  37. Audio

  38. ID : 2

  39. Format : E-AC-3

  40. Format/Info : Enhanced AC-3

  41. Commercial name : Dolby Digital Plus

  42. Codec ID : A_EAC3

  43. Duration : 1 h 23 min

  44. Bit rate mode : Constant

  45. Bit rate : 256 kb/s

  46. Channel(s) : 2 channels

  47. Channel layout : L R

  48. Sampling rate : 48.0 kHz

  49. Frame rate : 31.250 FPS (1536 SPF)

  50. Compression mode : Lossy

  51. Stream size : 153 MiB (9%)

  52. Service kind : Complete Main

  53. Default : Yes

  54. Forced : No




复制代码




文件下载


除非特别注明,本文『寻龙之幽冥地宫[国语配音/中文字幕].The.Nether.Palace.2021.2160p.WEB-DL.H265.DDP2.0-btbt9527.com 1.75GB』来源于互联网机器人自动抓取,非本站原创。 浮游电影网不对本文拥有版权,如有侵犯,请联系邮箱:fuyouu#yandex.com[#换成@]投诉。我们会在15个工作日内删除。 但烦请转载时请标明出处:“本文转载于『浮游电影网』,原文地址:https://www.fuyouu.com/19169.html

评论吧骚年!

发表你的见解   

昵称*

E-mail*(建议输入,以便收到博主回复的提示邮件)

验证码*

您可以使用eMule或eMule Mod(Windows)、aMule(Win、Linux、Mac)等软件下载eD2k链接。。
eMule收藏集(.emulecollection)文件是您选中的所有链接的列表文件。eMule可以直接下载它们。
按住SHIFT键选择可以选中多个选择框。
可用文件名和大小选择器来选择文件。
文件名选择器帮您根据文件名称或后缀来选择文件。不分大小写。
符号使用:
和:空格( )、+
不包含:-
或:|
转义:一对英文引号("");
匹配开头:^
匹配结尾:$
例如:
选中所有名称中包含有“eMule”或“0.49c”字眼,但不包含有“exe”字眼的:emule|0.49c -exe
选中所有名称的开头是“eMule”,结尾是“0.49c”的:^emule 0.49c$
选中所有名称中带有“eMule 0.49c”的(必须是“eMule 0.49c”,中间没有别的字符,不能是“eMule fake 0.49c”),需要转义:"emule 0.49c"
大小选择器帮您根据文件大小选择文件。