当前位置: 首页 >> 国产电影 >> 乘风破浪[国语配音/中文字幕].The.Warlord.Of.The.Sea.2021.2160p.WEB-DL.H265.AAC-btbt9527.com 2.27GB >> 正文

乘风破浪[国语配音/中文字幕].The.Warlord.Of.The.Sea.2021.2160p.WEB-DL.H265.AAC-btbt9527.com 2.27GB

2021年12月06日 08:37:39     电影发布:来源于网络     电影分类:国产电影     评论(0)    

乘风破浪[国语配音/中文字幕].The.Warlord.Of.The.Sea.2021.2160p.WEB DL.H265.AAC btbt9527.com 2.27GB 奇幻片 冒险片 国产电影  第1张

◎译 名 乘风破浪 / 大航海王

◎年 代 2021

◎产 地 中国大陆

◎类 别 奇幻 / 冒险

◎上映日期 2021-12-04(中国大陆)

◎IMDb链接 https://www.imdb.com/title//

◎豆瓣链接 https://movie.douban.com/subject/35030748/

◎导 演 何佳男 Jianan He (id:1373369)

◎标 签 大陆

◎简 介

在遥远的未来,极端气候导致绝大部分陆地被海水淹没,幸免于难的人们在仅有的微小陆地上建立了无极城。为了生存,海盗、海警、海上的流浪者们不得不踏上寻找新大陆的征途,全新的航海时代就此开启。 在经历了一场海盗舰队突袭之后,无极城海警意外获得一张有关“新大陆”的藏宝图。由于海路艰险,在无风带的深海“死寂海域”寄居着深海巨兽“灯笼鬼王”,海警“罗沥”不得不释放被关押在海牢,且能聆听万物之声的海语者“海姬”,与其舰队组队,共同踏上了充满奇幻冒险的寻找新大陆之旅。

  1. ##### MediaInfo ######

  2. General

  3. Complete name : 乘风破浪[email protected].mp4

  4. Format : MPEG-4

  5. Format profile : Base Media

  6. Codec ID : isom (isom/iso2/mp41)

  7. File size : 2.27 GiB

  8. Duration : 1 h 29 min

  9. Overall bit rate : 3 614 kb/s

  10. Writing application : Lavf58.17.103


  11. Video

  12. ID : 1

  13. Format : HEVC

  14. Format/Info : High Efficiency Video Coding

  15. Format profile : [email protected]@Main

  16. Codec ID : hev1

  17. Codec ID/Info : High Efficiency Video Coding

  18. Duration : 1 h 29 min

  19. Bit rate : 3 417 kb/s

  20. Width : 3 840 pixels

  21. Height : 1 632 pixels

  22. Display aspect ratio : 2.35:1

  23. Frame rate mode : Constant

  24. Frame rate : 25.000 FPS

  25. Color space : YUV

  26. Chroma subsampling : 4:2:0

  27. Bit depth : 8 bits

  28. Bits/(Pixel*Frame) : 0.022

  29. Stream size : 2.14 GiB (95%)

  30. Codec configuration box : hvcC


  31. Audio

  32. ID : 2

  33. Format : AAC LC

  34. Format/Info : Advanced Audio Codec Low Complexity

  35. Codec ID : mp4a-40-2

  36. Duration : 1 h 29 min

  37. Bit rate mode : Constant

  38. Bit rate : 192 kb/s

  39. Channel(s) : 2 channels

  40. Channel layout : L R

  41. Sampling rate : 44.1 kHz

  42. Frame rate : 43.066 FPS (1024 SPF)

  43. Compression mode : Lossy

  44. Stream size : 122 MiB (5%)

  45. Default : Yes

  46. Alternate group : 1




复制代码




文件下载


除非特别注明,本文『乘风破浪[国语配音/中文字幕].The.Warlord.Of.The.Sea.2021.2160p.WEB-DL.H265.AAC-btbt9527.com 2.27GB』来源于互联网机器人自动抓取,非本站原创。 浮游电影网不对本文拥有版权,如有侵犯,请联系邮箱:fuyouu#yandex.com[#换成@]投诉。我们会在15个工作日内删除。 但烦请转载时请标明出处:“本文转载于『浮游电影网』,原文地址:https://www.fuyouu.com/19168.html

评论吧骚年!

发表你的见解   

昵称*

E-mail*(建议输入,以便收到博主回复的提示邮件)

验证码*

您可以使用eMule或eMule Mod(Windows)、aMule(Win、Linux、Mac)等软件下载eD2k链接。。
eMule收藏集(.emulecollection)文件是您选中的所有链接的列表文件。eMule可以直接下载它们。
按住SHIFT键选择可以选中多个选择框。
可用文件名和大小选择器来选择文件。
文件名选择器帮您根据文件名称或后缀来选择文件。不分大小写。
符号使用:
和:空格( )、+
不包含:-
或:|
转义:一对英文引号("");
匹配开头:^
匹配结尾:$
例如:
选中所有名称中包含有“eMule”或“0.49c”字眼,但不包含有“exe”字眼的:emule|0.49c -exe
选中所有名称的开头是“eMule”,结尾是“0.49c”的:^emule 0.49c$
选中所有名称中带有“eMule 0.49c”的(必须是“eMule 0.49c”,中间没有别的字符,不能是“eMule fake 0.49c”),需要转义:"emule 0.49c"
大小选择器帮您根据文件大小选择文件。