当前位置: 首页 >> 国产电影 >> 不老奇事[国语配音/中文字幕].The.Curious.Tale.of.Mr.Guo.2021.2160p.WEB-DL.H265.DDP5.1-btbt9527.com 2.43GB >> 正文

不老奇事[国语配音/中文字幕].The.Curious.Tale.of.Mr.Guo.2021.2160p.WEB-DL.H265.DDP5.1-btbt9527.com 2.43GB

2021年12月06日 08:36:12     电影发布:来源于网络     电影分类:国产电影     评论(0)    

不老奇事[国语配音/中文字幕].The.Curious.Tale.of.Mr.Guo.2021.2160p.WEB DL.H265.DDP5.1 btbt9527.com 2.43GB 爱情片 剧情片 国产电影  第1张

◎译 名 不老奇事 / The Curious Tale of Mr.Guo / Forever Young

◎年 代 2021

◎产 地 中国大陆

◎类 别 剧情 / 爱情

◎语 言 汉语普通话

◎上映日期 2021-11-05(中国大陆)

◎IMDb链接 https://www.imdb.com/title/tt11193838/

◎豆瓣评分 6.2/10 (7478人评价)

◎豆瓣链接 https://movie.douban.com/subject/27008393/

◎片 长 136分钟

◎导 演 徐超 Chao Xu (id:1336346)

◎编 剧 王朔 Shuo Wang (id:1274389)

吴荑 Ti Wu (id:1395288)

◎演 员 王传君 Chuanjun Wang (id:1313837)

王珞丹 Luodan Wang (id:1274301)

李婷婷 TingtingLi (id:1381038)

王啸坤 Xiaokun Wang (id:1315185)

许伟豪 Tony Xu (id:1365364)

舒耀瑄 Yaoxuan Shu (id:1314212)

谭建昌 Jianchang Tan (id:1365532)

孙华颖 (id:1418812)

李美思 Ines Laimins (id:1349053)

张馨元 Xinyuan Zhang (id:1423516)

马梓涵 Zihan Ma (id:1326564)

孔令西 Lingxi Kong (id:1372046)

薛媛媛 Yuanyuan Xue (id:1383128)

张平雨 Rain Zhang (id:1418814)

朱耕佑 Gengyou Zhu (id:1396885)

赵语彤 Zhao Yu Tong (id:1418815)

安呈赫 (id:1418816)

裴佳欣 Jiaxin Pei (id:1400084)

崔宝印 Brother Sway (id:1355359)

吴彦姝 Yanshu Wu (id:1338004)

郭婷婷 Tingting Guo (id:1355363)

朱宜丹 (id:1446301)

夏志卫 (id:1427393)

蔡敏 (id:1446302)

陈杰 (id:1427394)

谢超 (id:1427395)

任嘉鹏 (id:1446303)

杨鑫 Xin Yang (id:1418820)

郭宇 (id:1418821)

彭怀逸 (id:1407995)

王倩 (id:1418822)

文伊白 (id:1418823)

侯青 (id:1418824)

王飞 (id:1418832)

王潇潇 (id:1459080)

宇文硕 Yuwen Shuo (id:1329133)

刘宇宁 Yuning Liu (id:1401585)

莫里斯·保罗·雷顿 (id:1418833)

周豪 (id:1418836)

刘晶 Jing Liu (id:1384900)

刘宁 (id:1418835)

熊艺 Yi Xiong (id:1418834)

韩睿达 Ruida Han (id:1464034)

关晓伟 (id:1418837)

周昆林 (id:1418838)

◎标 签 王传君 / 王珞丹 / 王朔 / 爱情 / 剧情 / 2021 / 中国 / 中国大陆

◎简 介

一开始就心动的人,会心动一辈子。

电影讲述了郭小鲁(王传君 饰)与苏凌芳(王珞丹 饰)这对青梅竹马的一生故事,因小时候的一场变故被迫分开,未曾抵达的书信让两人踏上不同的人生轨迹。校园中的久别重逢,青春的激情让分别许久的爱情再度重燃,之后的人生里这对恋人经历了一次又一次爱而不得的错过。学医的郭小鲁在绝望之间发现了青春不老的秘密,但随着身边的爱人老去,青春时留下的默许承诺,却成为他奇幻人生的难舍遗憾,就让时间来证明,我有多爱你。

  1. ##### MediaInfo ######

  2. General

  3. Unique ID : 52400086265674168250114497438081460999 (0x276BE3B7C35FD9D84572005B4F31AB07)

  4. Complete name : 不老奇事[email protected]MKVHome.mkv

  5. Format : Matroska

  6. Format version : Version 4

  7. File size : 2.43 GiB

  8. Duration : 2 h 15 min

  9. Overall bit rate : 2 562 kb/s

  10. Encoded date : UTC 2021-12-05 01:46:50

  11. Writing application : mkvmerge v56.1.0 ('My Friend') 64-bit

  12. Writing library : libebml v1.4.2 + libmatroska v1.6.4


  13. Video

  14. ID : 2

  15. Format : HEVC

  16. Format/Info : High Efficiency Video Coding

  17. Format profile : [email protected]@Main

  18. Codec ID : V_MPEGH/ISO/HEVC

  19. Duration : 2 h 15 min

  20. Bit rate : 2 304 kb/s

  21. Width : 3 840 pixels

  22. Height : 2 024 pixels

  23. Display aspect ratio : 1.897

  24. Frame rate mode : Constant

  25. Frame rate : 24.000 FPS

  26. Color space : YUV

  27. Chroma subsampling : 4:2:0

  28. Bit depth : 8 bits

  29. Bits/(Pixel*Frame) : 0.012

  30. Stream size : 2.18 GiB (90%)

  31. Default : Yes

  32. Forced : No


  33. Audio

  34. ID : 1

  35. Format : E-AC-3

  36. Format/Info : Enhanced AC-3

  37. Commercial name : Dolby Digital Plus

  38. Codec ID : A_EAC3

  39. Duration : 2 h 15 min

  40. Bit rate mode : Constant

  41. Bit rate : 256 kb/s

  42. Channel(s) : 6 channels

  43. Channel layout : L R C LFE Ls Rs

  44. Sampling rate : 48.0 kHz

  45. Frame rate : 31.250 FPS (1536 SPF)

  46. Compression mode : Lossy

  47. Stream size : 248 MiB (10%)

  48. Service kind : Complete Main

  49. Default : Yes

  50. Forced : No




复制代码



文件下载


除非特别注明,本文『不老奇事[国语配音/中文字幕].The.Curious.Tale.of.Mr.Guo.2021.2160p.WEB-DL.H265.DDP5.1-btbt9527.com 2.43GB』来源于互联网机器人自动抓取,非本站原创。 浮游电影网不对本文拥有版权,如有侵犯,请联系邮箱:fuyouu#yandex.com[#换成@]投诉。我们会在15个工作日内删除。 但烦请转载时请标明出处:“本文转载于『浮游电影网』,原文地址:https://www.fuyouu.com/19167.html

评论吧骚年!

发表你的见解   

昵称*

E-mail*(建议输入,以便收到博主回复的提示邮件)

验证码*

您可以使用eMule或eMule Mod(Windows)、aMule(Win、Linux、Mac)等软件下载eD2k链接。。
eMule收藏集(.emulecollection)文件是您选中的所有链接的列表文件。eMule可以直接下载它们。
按住SHIFT键选择可以选中多个选择框。
可用文件名和大小选择器来选择文件。
文件名选择器帮您根据文件名称或后缀来选择文件。不分大小写。
符号使用:
和:空格( )、+
不包含:-
或:|
转义:一对英文引号("");
匹配开头:^
匹配结尾:$
例如:
选中所有名称中包含有“eMule”或“0.49c”字眼,但不包含有“exe”字眼的:emule|0.49c -exe
选中所有名称的开头是“eMule”,结尾是“0.49c”的:^emule 0.49c$
选中所有名称中带有“eMule 0.49c”的(必须是“eMule 0.49c”,中间没有别的字符,不能是“eMule fake 0.49c”),需要转义:"emule 0.49c"
大小选择器帮您根据文件大小选择文件。