当前位置: 首页 >> 欧美电影 >> 利欲两心[双语字幕].Two.For.The.Money.2005.GER.1080p.BluRay.x265.10bit.DDP5.1.MNHD-btbt9527.com 8.60GB >> 正文

利欲两心[双语字幕].Two.For.The.Money.2005.GER.1080p.BluRay.x265.10bit.DDP5.1.MNHD-btbt9527.com 8.60GB

2021年12月06日 08:34:48     电影发布:来源于网络     电影分类:欧美电影     评论(0)    

利欲两心[双语字幕].Two.For.The.Money.2005.GER.1080p.BluRay.x265.10bit.DDP5.1.MNHD btbt9527.com 8.60GB 运动 惊悚片 剧情片 欧美电影  第1张

◎译 名 利欲两心 / 利欲熏心 / 钱太多 / 豪赌师徒 / 抢钱二势力 / 都是钞票惹的货 / 金钱游戏 / 2 for the Money

◎片 名 Two for the Money

◎年 代 2005

◎产 地 美国

◎类 别 剧情 / 惊悚 / 运动

◎语 言 英语

◎上映日期 2005-10-07(美国)

◎IMDb链接 https://www.imdb.com/title/tt0417217/

◎豆瓣评分 6.8/10 (3419人评价)

◎豆瓣链接 https://movie.douban.com/subject/1438299/

◎片 长 122分钟

◎导 演 D·J·卡卢索 D.J. Caruso (id:1014019)

◎编 剧 丹·吉尔罗伊 Dan Gilroy (id:1009561)

◎演 员 马修·麦康纳 Matthew McConaughey (id:1040511)

阿尔·帕西诺 Al Pacino (id:1054451)

蕾妮·罗素 Rene Russo (id:1004610)

阿曼德·阿山特 Armand Assante (id:1027842)

杰里米·皮文 Jeremy Piven (id:1027071)

杰米·金 Jaime King (id:1044874)

凯文·查普曼 Kevin Chapman (id:1280483)

杰罗德·布切 Jarrod Bunch (id:1073160)

加里·哈德逊 Gary Hudson (id:1000530)

Ron Pitts Ron Pitts (id:1029237)

泰勒·詹姆斯·威廉姆 Tyler James Williams (id:1027282)

Mazio Royster Mazio Royster (id:1142390)

苏姗·瓦德 Susan Ward (id:1308599)

薇娜·苏德 Veena Sood (id:1339926)

吉姆·罗马 Jim Rome (id:1028312)

卡莉·波普 Carly Pope (id:1049582)

艾普尔·特莱克 April Telek (id:1048278)

乔尔·罗斯 Joel Ross (id:1219366)

Josh Hayden Josh Hayden (id:1210516)

查尔斯·卡罗尔 Charles Carroll (id:1074220)

艾德里安·霍姆斯 Adrian Holmes (id:1095063)

拉尔夫·加曼 Ralph Garman (id:1099726)

詹姆斯·柯克 James Kirk (id:1109192)

大卫洛夫格伦 David Lovgren (id:1122887)

Robin Mossley Robin Mossley (id:1126530)

路易斯·穆斯蒂略 Louis Mustillo (id:1131455)

杰森斯·乔姆宾 Jason Schombing (id:1144148)

渡边戈登 Gedde Watanabe (id:1162629)

露西亚娜·卡罗 Luciana Carro (id:1191101)

Ty Law Ty Law (id:1202617)

O.J. McClintock O.J. McClintock (id:1203071)

Dustin Dennard Dustin Dennard (id:1204716)

杰里米·吉尔伯特 Jeremy Guilbaut (id:1453462)

詹姆斯·弗雷塔格 James M. Freitag (id:1284167)

韦恩·莫里斯 Wayne Morris (id:1292561)

Guy McElwaine Guy McElwaine (id:1010474)

丹·吉尔罗伊 Dan Gilroy (id:1009561)

蕾妮·罗素 Rene Russo (id:1004610)

James G. Robinson James G. Robinson (id:1295819)

克里斯托弗·贝克 Christophe Beck (id:1278180)

康拉德·W·霍尔 Conrad W. Hall (id:1041863)

Sean Cossey Sean Cossey (id:1276677)

Pam Dixon Pam Dixon (id:1282494)

尼古拉斯·伦迪 Nicholas Lundy (id:1290473)

阿迪纳·肖尔 Adina Shore (id:1055432)

Norma Hill-Patton Norma Hill-Patton (id:1286633)

阿兰·格拉夫 Allan Graf (id:1285262)

詹姆斯·弗雷塔格 James M. Freitag (id:1284167)

◎标 签 阿尔·帕西诺 / 美国 / 剧情 / AlPacino / 赌博 / 美国电影 / 人性 / 2005

◎简 介

一次偶然中,布兰登(马修·麦康纳 Matthew McConaughey 饰)发现自己竟然拥有一项如此神奇的特异功能——他能够准确预测出每周末举行的橄榄球比赛的结果。这一能力彻底扭转了布兰登失意而又颓废的生活,同时也将他卷入了金钱和利益所构造的漩涡之中。

沃特(阿尔·帕西诺 Al Pacino 饰)经营着一家体育顾问公司,布兰登的神奇能力在他的眼中无异于是一根点石成金的魔杖。野心勃勃的他找到了布兰登,千方百计的说服了后者加入了他的公司。从此,沃特的事业扶摇直上,布兰登也在沃特的身上找到了亲情和友情。但随着布兰登的能力的逐渐流逝,他和沃特之间的关系也开始了动摇。两人心中都有各自的想法,而最终的赢家只有一个。

  1. ##### MediaInfo ######

  2. General

  3. Unique ID : 179368892404180972337883185532785678400 (0x86F1312D49888791C0848C5306985840)

  4. Complete name : Two.F[email protected]MKVHome.mkv

  5. Format : Matroska

  6. Format version : Version 4

  7. File size : 8.60 GiB

  8. Duration : 2 h 2 min

  9. Overall bit rate : 10.0 Mb/s

  10. Encoded date : UTC 2021-12-04 10:00:23

  11. Writing application : mkvmerge v63.0.0 ('Everything') 64-bit

  12. Writing library : libebml v1.4.2 + libmatroska v1.6.4


  13. Video

  14. ID : 1

  15. Format : HEVC

  16. Format/Info : High Efficiency Video Coding

  17. Format profile : Main [email protected]@High

  18. Codec ID : V_MPEGH/ISO/HEVC

  19. Duration : 2 h 2 min

  20. Bit rate : 8 503 kb/s

  21. Width : 1 920 pixels

  22. Height : 816 pixels

  23. Display aspect ratio : 2.35:1

  24. Frame rate mode : Constant

  25. Frame rate : 23.976 (24000/1001/53354) FPS

  26. Color space : YUV

  27. Chroma subsampling : 4:2:0

  28. Bit depth : 10 bits

  29. Bits/(Pixel*Frame) : 0.226

  30. Stream size : 7.28 GiB (85%)

  31. Writing library : x265 3.5+2-g2b25c9ba0+45:[Windows][GCC 10.2.0][64 bit] Yuuki 10bit

  32. Encoding settings : rc=crf / crf=22.0000 / qcomp=0.65 / qpstep=4 / stats-write=0 / stats-read=0 / vbv-maxrate=160000 / vbv-bufsize=160000 / vbv-init=0.9 / min-vbv-fullness=50.0 / max-vbv-fullness=80.0 / crf-max=0.0 / crf-min=0.0 / no-lossless / no-cu-lossless / aq-mode=1 / aq-strength=1.00 / cbqpoffs=-2 / crqpoffs=-2 / ipratio=1.30 / pbratio=1.20 / psy-rd=1.50 / psy-rdoq=1.00 / deblock=-3:-3 / ref=6 / limit-refs=0 / no-limit-modes / bframes=8 / b-adapt=2 / bframe-bias=0 / b-pyramid / b-intra / weightp / weightb / min-keyint=1 / max-keyint=250 / rc-lookahead=100 / gop-lookahead=0 / NTMzNTQ=uuDQuD2mJt9fsCf / scenecut=40 / hist-scenecut=0 / radl=0 / max-cu-size=32 / min-cu-size=8 / me=3 / subme=7 / merange=57 / rdoq-level=2 / rd=4 / rdpenalty=0 / dynamic-rd=0.00 / no-rd-refine / ----- / no-cutree / no-sao / no-rect / no-amp / no-open-gop / wpp / pmode / no-pme / no-psnr / no-ssim / nr-intra=0 / nr-inter=0 / no-constrained-intra / strong-intra-smoothing / max-tu-size=32 / tu-inter-depth=4 / tu-intra-depth=4 / limit-tu=0 / qg-size=8 / qpmax=69 / qpmin=0 / ----- / cpuid=533541111039 / frame-threads=4 / numa-pools=16 / log-level=2 / input-csp=1 / input-res=1920x816 / interlace=0 / level-idc=0 / high-tier=1 / uhd-bd=0 / no-allow-non-conformance / no-repeat-headers / no-aud / no-hrd / info / hash=0 / no-temporal-layers / lookahead-slices=0 / no-splice / no-intra-refresh / no-ssim-rd / signhide / tskip / max-merge=5 / temporal-mvp / no-frame-dup / no-hme / no-analyze-src-pics / no-sao-non-deblock / selective-sao=0 / no-early-skip / no-rskip / no-fast-intra / no-tskip-fast / no-splitrd-skip / zone-count=0 / no-strict-cbr / no-rc-grain / no-const-vbv / sar=0 / overscan=0 / videoformat=5 / range=0 / colorprim=1 / transfer=1 / colormatrix=1 / chromaloc=0 / display-window=0 / cll=0,0 / min-luma=0 / max-luma=1023 / log2-max-poc-lsb=8 / vui-timing-info / vui-hrd-info / slices=1 / no-opt-qp-pps / no-opt-ref-list-length-pps / no-multi-pass-opt-rps / scenecut-bias=0.05 / hist-threshold=0.03 / no-opt-cu-delta-qp / no-aq-motion / no-hdr10 / no-hdr10-opt / no-dhdr10-opt / no-idr-recovery-sei / analysis-reuse-level=0 / analysis-save-reuse-level=0 / analysis-load-reuse-level=0 / scale-factor=0 / refine-intra=0 / refine-inter=0 / refine-mv=1 / refine-ctu-distortion=0 / no-limit-sao / ctu-info=0 / no-lowpass-dct / refine-analysis-type=0 / copy-pic=1 / max-ausize-factor=1.0 / no-dynamic-refine / no-single-sei / no-hevc-aq / no-svt / no-field / qp-adaptation-range=1.00 / scenecut-aware-qp=0conformance-window-offsets / right=0 / bottom=0 / NTMzNTQ= / decoder-max-rate=0 / no-vbv-live-multi-pass

  33. Default : Yes

  34. Forced : No

  35. Color range : Limited

  36. Color primaries : BT.709

  37. Transfer characteristics : BT.709

  38. Matrix coefficients : BT.709


  39. Audio

  40. ID : 2

  41. Format : E-AC-3

  42. Format/Info : Enhanced AC-3

  43. Commercial name : Dolby Digital Plus

  44. Codec ID : A_EAC3

  45. Duration : 2 h 2 min

  46. Bit rate mode : Constant

  47. Bit rate : 1 536 kb/s

  48. Channel(s) : 6 channels

  49. Channel layout : L R C LFE Ls Rs

  50. Sampling rate : 48.0 kHz

  51. Frame rate : 187.500 FPS (256 SPF)

  52. Compression mode : Lossy

  53. Stream size : 1.31 GiB (15%)

  54. Service kind : Complete Main

  55. Default : Yes

  56. Forced : No


  57. Text

  58. ID : 3

  59. Format : ASS

  60. Codec ID : S_TEXT/ASS

  61. Codec ID/Info : Advanced Sub Station Alpha

  62. Duration : 1 h 58 min

  63. Bit rate : 332 b/s

  64. Count of elements : 1933

  65. Compression mode : Lossless

  66. Stream size : 289 KiB (0%)

  67. Title : CHS&ENG

  68. Language : Chinese

  69. Default : Yes

  70. Forced : No




复制代码



文件下载


除非特别注明,本文『利欲两心[双语字幕].Two.For.The.Money.2005.GER.1080p.BluRay.x265.10bit.DDP5.1.MNHD-btbt9527.com 8.60GB』来源于互联网机器人自动抓取,非本站原创。 浮游电影网不对本文拥有版权,如有侵犯,请联系邮箱:fuyouu#yandex.com[#换成@]投诉。我们会在15个工作日内删除。 但烦请转载时请标明出处:“本文转载于『浮游电影网』,原文地址:https://www.fuyouu.com/19166.html

评论吧骚年!

发表你的见解   

昵称*

E-mail*(建议输入,以便收到博主回复的提示邮件)

验证码*

您可以使用eMule或eMule Mod(Windows)、aMule(Win、Linux、Mac)等软件下载eD2k链接。。
eMule收藏集(.emulecollection)文件是您选中的所有链接的列表文件。eMule可以直接下载它们。
按住SHIFT键选择可以选中多个选择框。
可用文件名和大小选择器来选择文件。
文件名选择器帮您根据文件名称或后缀来选择文件。不分大小写。
符号使用:
和:空格( )、+
不包含:-
或:|
转义:一对英文引号("");
匹配开头:^
匹配结尾:$
例如:
选中所有名称中包含有“eMule”或“0.49c”字眼,但不包含有“exe”字眼的:emule|0.49c -exe
选中所有名称的开头是“eMule”,结尾是“0.49c”的:^emule 0.49c$
选中所有名称中带有“eMule 0.49c”的(必须是“eMule 0.49c”,中间没有别的字符,不能是“eMule fake 0.49c”),需要转义:"emule 0.49c"
大小选择器帮您根据文件大小选择文件。