当前位置: 首页 >> 欧美电影 >> 沙丘[国语配音/中文字幕].Dune.2021.1080p.BluRay.TrueHD.7.1.Atmos.2Audio.x265-10bit-btbt9527.com 15.99GB >> 正文

沙丘[国语配音/中文字幕].Dune.2021.1080p.BluRay.TrueHD.7.1.Atmos.2Audio.x265-10bit-btbt9527.com 15.99GB

2021年12月06日 08:20:33     电影发布:来源于网络     电影分类:欧美电影     评论(0)    

沙丘[国语配音/中文字幕].Dune.2021.1080p.BluRay.TrueHD.7.1.Atmos.2Audio.x265 10bit btbt9527.com 15.99GB 科幻片 冒险片 剧情片 欧美电影  第1张

◎译 名 沙丘 / 沙丘瀚战(港) / Dune: Part One

◎片 名 Dune

◎年 代 2021

◎产 地 美国

◎类 别 剧情 / 科幻 / 冒险

◎语 言 英语 / 汉语普通话

◎上映日期 2021-10-22(美国/中国大陆) / 2021-09-03(威尼斯电影节) / 2021-09-11(多伦多电影节)

◎IMDb链接 https://www.imdb.com/title/tt1160419/

◎豆瓣评分 7.8/10 (353478人评价)

◎豆瓣链接 https://movie.douban.com/subject/3001114/

◎片 长 156分钟

◎导 演 丹尼斯·维伦纽瓦 Denis Villeneuve (id:1028333)

◎编 剧 丹尼斯·维伦纽瓦 Denis Villeneuve (id:1028333)

乔·斯派茨 Jon Spaihts (id:1320120)

艾瑞克·罗斯 Eric Roth (id:1000393)

弗兰克·赫伯特 Frank Herbert (id:1028181)

◎演 员 蒂莫西·柴勒梅德 Timothée Chalamet (id:1325862)

丽贝卡·弗格森 Rebecca Ferguson (id:1088314)

奥斯卡·伊萨克 Oscar Isaac (id:1012481)

戴夫·巴蒂斯塔 Dave Bautista (id:1014003)

赞达亚 Zendaya (id:1325576)

杰森·莫玛 Jason Momoa (id:1022614)

乔什·布洛林 Josh Brolin (id:1004568)

哈维尔·巴登 Javier Bardem (id:1054414)

斯特兰·斯卡斯加德 Stellan Skarsg?rd (id:1017918)

夏洛特·兰普林 Charlotte Rampling (id:1007020)

大卫·达斯马齐连 David Dastmalchian (id:1337583)

莎伦·邓肯-布鲁斯特 Sharon Duncan-Brewster (id:1192335)

斯蒂芬·亨德森 Stephen Henderson (id:1098483)

迈克尔·纳尔多内 Michael Nardone (id:1132642)

张震 Chen Chang (id:1077991)

巴布斯·奥卢桑莫昆 Babs Olusanmokun (id:1412919)

奥利弗·瑞安 Oliver Ryan (id:1450193)

查理·罗尔斯 Charlie Rawes (id:1395007)

格洛里亚·奥比安约 Gloria Obianyo (id:1417321)

保罗·布林 Paul Bullion (id:1392807)

比约恩·弗赖贝格 Bj?rn Freiberg (id:1409305)

理查德·P·鲁宾斯坦 Richard P. Rubinstein (id:1019479)

凯文·J·安德森 Kevin J. Anderson (id:1054184)

丹尼斯·维伦纽瓦 Denis Villeneuve (id:1028333)

托马斯·图尔 Thomas Tull (id:1348364)

坦尼亚·拉波因特 Tanya Lapointe (id:1400971)

汉斯·季默 Hans Zimmer (id:1054386)

格雷格·弗莱瑟 Greig Fraser (id:1028361)

乔·沃克 Joe Walker (id:1336020)

帕特里斯·维梅特 Patrice Vermette (id:1299995)

汤姆·布朗 Tom Brown (id:1055694)

理查德·罗伯茨 Richard Roberts (id:1295779)

杰奎琳·韦斯特 Jacqueline West (id:1300754)

◎标 签 科幻 / 沙丘 / 美国 / 奇幻 / 2021 / 冒险 / 剧情 / 经典

◎简 介

电影《沙丘》为观众呈现了一段神秘而感人至深的英雄之旅。天赋异禀的少年保罗·厄崔迪被命运指引,为了保卫自己的家族和人民,决心前往浩瀚宇宙间最危险的星球,开启一场惊心动魄的冒险。与此同时,各路势力为了抢夺这颗星球上一种能够释放人类最大潜力的珍贵资源而纷纷加入战场。最终,唯有那些能够战胜内心恐惧的人才能生存下去。

◎获奖情况 (共2项)

第7届豆瓣电影年度榜单 (2020)

最值得期待的外语电影(提名)

第6届豆瓣电影年度榜单 (2019)

最值得期待的外语电影(提名)

  1. ##### MediaInfo ######

  2. General

  3. Unique ID : 196244567382526905265372221910113586679 (0x93A354311F1285398FF2C111F2140DF7)

  4. Complete name : [email protected]MKVHome.mkv

  5. Format : Matroska

  6. Format version : Version 4

  7. File size : 16.0 GiB

  8. Duration : 2 h 35 min

  9. Overall bit rate mode : Variable

  10. Overall bit rate : 14.7 Mb/s

  11. Movie name : Dune 2021 1080p BluRay TrueHD 7.1 Atmos 2Audio [email protected]

  12. Encoded date : UTC 2021-12-05 07:29:51

  13. Writing application : mkvmerge v38.0.0 ('The Silent Type') 64-bit

  14. Writing library : libebml v1.3.9 + libmatroska v1.5.2


  15. Video

  16. ID : 1

  17. Format : HEVC

  18. Format/Info : High Efficiency Video Coding

  19. Format profile : Main [email protected]@High

  20. Codec ID : V_MPEGH/ISO/HEVC

  21. Duration : 2 h 35 min

  22. Bit rate : 6 687 kb/s

  23. Width : 1 920 pixels

  24. Height : 800 pixels

  25. Display aspect ratio : 2.40:1

  26. Frame rate mode : Constant

  27. Frame rate : 23.976 (24000/1001/53354) FPS

  28. Color space : YUV

  29. Chroma subsampling : 4:2:0

  30. Bit depth : 10 bits

  31. Bits/(Pixel*Frame) : 0.182

  32. Stream size : 7.26 GiB (45%)

  33. Title : [email protected]

  34. Writing library : x265 - H.265/HEVC codec

  35. Default : Yes

  36. Forced : No


  37. Audio #1

  38. ID : 2

  39. Format : MLP FBA 16-ch

  40. Format/Info : Meridian Lossless Packing FBA with 16-channel presentation

  41. Commercial name : Dolby TrueHD with Dolby Atmos

  42. Codec ID : A_TRUEHD

  43. Duration : 2 h 35 min

  44. Bit rate mode : Variable

  45. Bit rate : 3 243 kb/s

  46. Maximum bit rate : 5 472 kb/s

  47. Channel(s) : 8 channels

  48. Channel layout : L R C LFE Ls Rs Lb Rb

  49. Sampling rate : 48.0 kHz

  50. Frame rate : 1 200.000 FPS (40 SPF)

  51. Compression mode : Lossless

  52. Stream size : 3.52 GiB (22%)

  53. Title : English

  54. Language : English

  55. Default : Yes

  56. Forced : No

  57. Number of dynamic objects : 11

  58. Bed channel count : 1 channel

  59. Bed channel configuration : LFE


  60. Audio #2

  61. ID : 3

  62. Format : AC-3

  63. Format/Info : Audio Coding 3

  64. Commercial name : Dolby Digital

  65. Codec ID : A_AC3

  66. Duration : 2 h 35 min

  67. Bit rate mode : Constant

  68. Bit rate : 448 kb/s

  69. Channel(s) : 6 channels

  70. Channel layout : L R C LFE Ls Rs

  71. Sampling rate : 48.0 kHz

  72. Frame rate : 31.250 FPS (1536 SPF)

  73. Compression mode : Lossy

  74. Stream size : 498 MiB (3%)

  75. Service kind : Complete Main

  76. Default : No

  77. Forced : No


  78. Audio #3

  79. ID : 4

  80. Format : DTS XLL

  81. Format/Info : Digital Theater Systems

  82. Commercial name : DTS-HD Master Audio

  83. Codec ID : A_DTS

  84. Duration : 2 h 35 min

  85. Bit rate mode : Variable

  86. Bit rate : 4 219 kb/s

  87. Channel(s) : 6 channels

  88. Channel layout : C L R Ls Rs LFE

  89. Sampling rate : 48.0 kHz

  90. Frame rate : 93.750 FPS (512 SPF)

  91. Bit depth : 24 bits

  92. Compression mode : Lossless

  93. Stream size : 4.58 GiB (29%)

  94. Title : Mandarin

  95. Language : Chinese

  96. Default : No

  97. Forced : No


  98. Text #1

  99. ID : 5

  100. Format : PGS

  101. Muxing mode : zlib

  102. Codec ID : S_HDMV/PGS

  103. Codec ID/Info : Picture based subtitle format used on BDs/HD-DVDs

  104. Duration : 2 h 28 min

  105. Bit rate : 20.4 kb/s

  106. Count of elements : 2514

  107. Stream size : 21.7 MiB (0%)

  108. Title : CHS

  109. Language : Chinese

  110. Default : Yes

  111. Forced : No


  112. Text #2

  113. ID : 6

  114. Format : PGS

  115. Muxing mode : zlib

  116. Codec ID : S_HDMV/PGS

  117. Codec ID/Info : Picture based subtitle format used on BDs/HD-DVDs

  118. Duration : 2 h 28 min

  119. Bit rate : 21.5 kb/s

  120. Count of elements : 2514

  121. Stream size : 22.9 MiB (0%)

  122. Title : CHT

  123. Language : Chinese

  124. Default : No

  125. Forced : No


  126. Text #3

  127. ID : 7

  128. Format : PGS

  129. Muxing mode : zlib

  130. Codec ID : S_HDMV/PGS

  131. Codec ID/Info : Picture based subtitle format used on BDs/HD-DVDs

  132. Duration : 2 h 35 min

  133. Bit rate : 18.4 kb/s

  134. Count of elements : 2514

  135. Stream size : 20.4 MiB (0%)

  136. Title : CHS

  137. Language : Chinese

  138. Default : No

  139. Forced : No


  140. Text #4

  141. ID : 8

  142. Format : PGS

  143. Muxing mode : zlib

  144. Codec ID : S_HDMV/PGS

  145. Codec ID/Info : Picture based subtitle format used on BDs/HD-DVDs

  146. Duration : 2 h 35 min

  147. Bit rate : 20.0 kb/s

  148. Count of elements : 2360

  149. Stream size : 22.2 MiB (0%)

  150. Title : CHS

  151. Language : Chinese

  152. Default : No

  153. Forced : No


  154. Text #5

  155. ID : 9

  156. Format : PGS

  157. Muxing mode : zlib

  158. Codec ID : S_HDMV/PGS

  159. Codec ID/Info : Picture based subtitle format used on BDs/HD-DVDs

  160. Duration : 2 h 26 min

  161. Bit rate : 26.4 kb/s

  162. Count of elements : 3406

  163. Stream size : 27.7 MiB (0%)

  164. Title : ENG

  165. Language : English

  166. Default : No

  167. Forced : No


  168. Menu

  169. 00:00:00.000 : en:Chapter 01

  170. 00:03:16.154 : en:Chapter 02

  171. 00:12:54.816 : en:Chapter 03

  172. 00:22:00.736 : en:Chapter 04

  173. 00:29:16.922 : en:Chapter 05

  174. 00:39:10.932 : en:Chapter 06

  175. 00:47:19.795 : en:Chapter 07

  176. 00:56:53.493 : en:Chapter 08

  177. 01:06:50.381 : en:Chapter 09

  178. 01:16:44.892 : en:Chapter 10

  179. 01:26:00.655 : en:Chapter 11

  180. 01:36:00.380 : en:Chapter 12

  181. 01:45:09.470 : en:Chapter 13

  182. 01:53:50.323 : en:Chapter 14

  183. 02:03:38.536 : en:Chapter 15

  184. 02:12:13.342 : en:Chapter 16

  185. 02:20:45.771 : en:Chapter 17

  186. 02:27:27.797 : en:Chapter 18




复制代码



文件下载
资源名称:沙丘[国语配音/


除非特别注明,本文『沙丘[国语配音/中文字幕].Dune.2021.1080p.BluRay.TrueHD.7.1.Atmos.2Audio.x265-10bit-btbt9527.com 15.99GB』来源于互联网机器人自动抓取,非本站原创。 浮游电影网不对本文拥有版权,如有侵犯,请联系邮箱:fuyouu#yandex.com[#换成@]投诉。我们会在15个工作日内删除。 但烦请转载时请标明出处:“本文转载于『浮游电影网』,原文地址:https://www.fuyouu.com/19158.html

评论吧骚年!

发表你的见解   

昵称*

E-mail*(建议输入,以便收到博主回复的提示邮件)

验证码*

您可以使用eMule或eMule Mod(Windows)、aMule(Win、Linux、Mac)等软件下载eD2k链接。。
eMule收藏集(.emulecollection)文件是您选中的所有链接的列表文件。eMule可以直接下载它们。
按住SHIFT键选择可以选中多个选择框。
可用文件名和大小选择器来选择文件。
文件名选择器帮您根据文件名称或后缀来选择文件。不分大小写。
符号使用:
和:空格( )、+
不包含:-
或:|
转义:一对英文引号("");
匹配开头:^
匹配结尾:$
例如:
选中所有名称中包含有“eMule”或“0.49c”字眼,但不包含有“exe”字眼的:emule|0.49c -exe
选中所有名称的开头是“eMule”,结尾是“0.49c”的:^emule 0.49c$
选中所有名称中带有“eMule 0.49c”的(必须是“eMule 0.49c”,中间没有别的字符,不能是“eMule fake 0.49c”),需要转义:"emule 0.49c"
大小选择器帮您根据文件大小选择文件。