当前位置: 首页 >> 动画电影 >> 疯狂海盗团[国语配音/中文字幕].Captain.Sabertooth.And.The.Magic.Diamond.2021.2160p.WEB-DL.H265.DDP5.1.2Audio 1.63G >> 正文

疯狂海盗团[国语配音/中文字幕].Captain.Sabertooth.And.The.Magic.Diamond.2021.2160p.WEB-DL.H265.DDP5.1.2Audio 1.63G

2021年12月05日 12:14:50     电影发布:来源于网络     电影分类:动画电影     评论(0)    

疯狂海盗团[国语配音/中文字幕].Captain.Sabertooth.And.The.Magic.Diamond.2021.2160p.WEB DL.H265.DDP5.1.2Audio 1.63G 动画片 冒险片 动画电影  第1张

◎译 名 疯狂海盗团 / 船长的魔法钻石 / Popul?r sj?r?var / Captain Sabertooth and the Magic Diamond

◎片 名 Kaptein Sabeltann og den magiske diamant

◎年 代 2019

◎产 地 挪威

◎类 别 动画 / 冒险

◎语 言 挪威语

◎上映日期 2021-05-29(中国大陆) / 2019-09-27(挪威)

◎IMDb链接 https://www.imdb.com/title/tt8048384/

◎豆瓣链接 https://movie.douban.com/subject/30349333/

◎片 长 82分钟

◎导 演 拉斯姆斯·A·西韦特森 Rasmus A. Sivertsen (id:1305615)

◎编 剧 Terje Formoe Terje Formoe (id:1080768)

◎演 员 凯瑞·豪根·西德尼斯 Kyrre Haugen Sydness (id:1354175)

乔恩·奥伊登 Jon ?igarden (id:1402612)

托拜厄斯·桑特尔曼 Tobias Santelmann (id:1342063)

斯荣德·福斯·奥瓦格 Trond Fausa Aurvaag (id:1037676)

莱拉·古蒂 Laila Goody (id:1100227)

卡里·西蒙森 Kari Simonsen (id:1152962)

◎标 签 动画 / 海盗 / 2021影院 / 电影 / 挪威 / 影院 / 动画长篇 / 预告2021

◎简 介

故事讲述了茫茫大海中的一个黑暗丛林里,年轻的男孩马可正在逃离可怕的巫师和他的猿猴军队。逃跑途中,马可偷到一颗能够在满月时分实现愿望的魔法钻石。但不久之后,名声狼藉的剑齿虎船长听说了这颗神奇的钻石,决定率领海盗团将这颗钻石夺走……

  1. ##### MediaInfo ######

  2. General

  3. Unique ID : 125550612157534160033412618432371910 (0x182E1F834EE0701180381E51ED5CC6)

  4. Complete name : 疯狂海盗团.Captain.Sabertooth.A[email protected]MKVChina.mkv

  5. Format : Matroska

  6. Format version : Version 4

  7. File size : 1.63 GiB

  8. Duration : 1 h 21 min

  9. Overall bit rate : 2 864 kb/s

  10. Encoded date : UTC 2021-12-04 03:40:07

  11. Writing application : mkvmerge v56.1.0 ('My Friend') 64-bit

  12. Writing library : libebml v1.4.2 + libmatroska v1.6.4


  13. Video

  14. ID : 1

  15. Format : HEVC

  16. Format/Info : High Efficiency Video Coding

  17. Format profile : [email protected]@Main

  18. Codec ID : V_MPEGH/ISO/HEVC

  19. Duration : 1 h 21 min

  20. Bit rate : 2 350 kb/s

  21. Width : 3 840 pixels

  22. Height : 2 160 pixels

  23. Display aspect ratio : 16:9

  24. Frame rate mode : Constant

  25. Frame rate : 24.000 FPS

  26. Color space : YUV

  27. Chroma subsampling : 4:2:0

  28. Bit depth : 8 bits

  29. Bits/(Pixel*Frame) : 0.012

  30. Stream size : 1.34 GiB (82%)

  31. Default : Yes

  32. Forced : No


  33. Audio #1

  34. ID : 2

  35. Format : E-AC-3

  36. Format/Info : Enhanced AC-3

  37. Commercial name : Dolby Digital Plus

  38. Codec ID : A_EAC3

  39. Duration : 1 h 21 min

  40. Bit rate mode : Constant

  41. Bit rate : 256 kb/s

  42. Channel(s) : 6 channels

  43. Channel layout : L R C LFE Ls Rs

  44. Sampling rate : 48.0 kHz

  45. Frame rate : 31.250 FPS (1536 SPF)

  46. Compression mode : Lossy

  47. Stream size : 150 MiB (9%)

  48. Title : English

  49. Language : English

  50. Service kind : Complete Main

  51. Default : Yes

  52. Forced : No


  53. Audio #2

  54. ID : 3

  55. Format : E-AC-3

  56. Format/Info : Enhanced AC-3

  57. Commercial name : Dolby Digital Plus

  58. Codec ID : A_EAC3

  59. Duration : 1 h 21 min

  60. Bit rate mode : Constant

  61. Bit rate : 256 kb/s

  62. Channel(s) : 6 channels

  63. Channel layout : L R C LFE Ls Rs

  64. Sampling rate : 48.0 kHz

  65. Frame rate : 31.250 FPS (1536 SPF)

  66. Compression mode : Lossy

  67. Stream size : 150 MiB (9%)

  68. Title : Chinese

  69. Language : Chinese

  70. Service kind : Complete Main

  71. Default : No

  72. Forced : No




复制代码




文件下载


除非特别注明,本文『疯狂海盗团[国语配音/中文字幕].Captain.Sabertooth.And.The.Magic.Diamond.2021.2160p.WEB-DL.H265.DDP5.1.2Audio 1.63G』来源于互联网机器人自动抓取,非本站原创。 浮游电影网不对本文拥有版权,如有侵犯,请联系邮箱:fuyouu#yandex.com[#换成@]投诉。我们会在15个工作日内删除。 但烦请转载时请标明出处:“本文转载于『浮游电影网』,原文地址:https://www.fuyouu.com/19156.html

评论吧骚年!

发表你的见解   

昵称*

E-mail*(建议输入,以便收到博主回复的提示邮件)

验证码*

您可以使用eMule或eMule Mod(Windows)、aMule(Win、Linux、Mac)等软件下载eD2k链接。。
eMule收藏集(.emulecollection)文件是您选中的所有链接的列表文件。eMule可以直接下载它们。
按住SHIFT键选择可以选中多个选择框。
可用文件名和大小选择器来选择文件。
文件名选择器帮您根据文件名称或后缀来选择文件。不分大小写。
符号使用:
和:空格( )、+
不包含:-
或:|
转义:一对英文引号("");
匹配开头:^
匹配结尾:$
例如:
选中所有名称中包含有“eMule”或“0.49c”字眼,但不包含有“exe”字眼的:emule|0.49c -exe
选中所有名称的开头是“eMule”,结尾是“0.49c”的:^emule 0.49c$
选中所有名称中带有“eMule 0.49c”的(必须是“eMule 0.49c”,中间没有别的字符,不能是“eMule fake 0.49c”),需要转义:"emule 0.49c"
大小选择器帮您根据文件大小选择文件。