当前位置: 首页 >> 国产电影 >> 沙丘虫暴[国语配音/中文字幕].Devil.In.Dune.2021.2160p.WEB-DL.H265.AAC-btbt9527.com 2.24GB >> 正文

沙丘虫暴[国语配音/中文字幕].Devil.In.Dune.2021.2160p.WEB-DL.H265.AAC-btbt9527.com 2.24GB

2021年12月05日 12:13:29     电影发布:来源于网络     电影分类:国产电影     评论(0)    

沙丘虫暴[国语配音/中文字幕].Devil.In.Dune.2021.2160p.WEB DL.H265.AAC btbt9527.com 2.24GB 灾难片 科幻片 动作片 国产电影  第1张

◎译 名 沙丘虫暴 / 虫灾

◎年 代 2021

◎产 地 中国大陆

◎类 别 动作 / 科幻 / 灾难

◎语 言 汉语普通话

◎上映日期 2021-12-03(中国大陆网络)

◎IMDb链接 https://www.imdb.com/title//

◎豆瓣链接 https://movie.douban.com/subject/35248741/

◎片 长 78分钟

◎演 员 王紫逸 Ziyi Wang (id:1317348)

唐以诺 Yinuo Tang (id:1274720)

英达 Da Ying (id:1011479)

崔雅涵 Yahan Cui (id:1363049)

马牧萱 Muxuan Ma (id:1414169)

廖望 Wang Liao (id:1359480)

张振雷 Zhenlei Zhang (id:1415666)

赵培琳 Peilin Zhao (id:1353616)

◎标 签 末日 / 惊悚 / 悬疑 / 2021 / 不是很短嘛 / 100个数

◎简 介

在不远的未来,人类大量排放废气制造垃圾,远远超出地球的承载能力,地球迎来无法逆转的沙化期。动植物变异产生地球新主人“沙虫”,它们屠城略地将人类逼到灭绝边缘,幸存者只能孤注一掷,寻找大漠深处仅存的避难所“绿洲”。一支由富商、科学家、保安队长、机械师一家以及混混组成的流亡小队乘着特制装甲车踏上寻找“绿洲”的冒险旅程,但嗜血虫族却尾随在后紧追不舍。为了生存,众人不仅要躲避暴走沙虫的追击,还要应对同伴间的背叛和选择,死伤惨烈,希望渺茫。等待人类的将会是怎样的命运?

  1. ##### MediaInfo ######

  2. General

  3. Complete name : 沙丘虫暴[email protected]

  4. Format : MPEG-4

  5. Format profile : Base Media

  6. Codec ID : isom (isom/iso2/mp41)

  7. File size : 2.24 GiB

  8. Duration : 1 h 18 min

  9. Overall bit rate mode : Variable

  10. Overall bit rate : 4 094 kb/s

  11. Writing application : Lavf58.17.103


  12. Video

  13. ID : 1

  14. Format : HEVC

  15. Format/Info : High Efficiency Video Coding

  16. Format profile : [email protected]@Main

  17. Codec ID : hev1

  18. Codec ID/Info : High Efficiency Video Coding

  19. Duration : 1 h 18 min

  20. Bit rate : 3 897 kb/s

  21. Width : 3 840 pixels

  22. Height : 2 160 pixels

  23. Display aspect ratio : 16:9

  24. Frame rate mode : Constant

  25. Frame rate : 25.000 FPS

  26. Color space : YUV

  27. Chroma subsampling : 4:2:0

  28. Bit depth : 8 bits

  29. Bits/(Pixel*Frame) : 0.019

  30. Stream size : 2.13 GiB (95%)

  31. Codec configuration box : hvcC


  32. Audio

  33. ID : 2

  34. Format : AAC LC

  35. Format/Info : Advanced Audio Codec Low Complexity

  36. Codec ID : mp4a-40-2

  37. Duration : 1 h 18 min

  38. Bit rate mode : Variable

  39. Bit rate : 192 kb/s

  40. Channel(s) : 2 channels

  41. Channel layout : L R

  42. Sampling rate : 44.1 kHz

  43. Frame rate : 43.066 FPS (1024 SPF)

  44. Compression mode : Lossy

  45. Stream size : 106 MiB (5%)

  46. Default : Yes

  47. Alternate group : 1




复制代码




文件下载


除非特别注明,本文『沙丘虫暴[国语配音/中文字幕].Devil.In.Dune.2021.2160p.WEB-DL.H265.AAC-btbt9527.com 2.24GB』来源于互联网机器人自动抓取,非本站原创。 浮游电影网不对本文拥有版权,如有侵犯,请联系邮箱:fuyouu#yandex.com[#换成@]投诉。我们会在15个工作日内删除。 但烦请转载时请标明出处:“本文转载于『浮游电影网』,原文地址:https://www.fuyouu.com/19155.html

评论吧骚年!

发表你的见解   

昵称*

E-mail*(建议输入,以便收到博主回复的提示邮件)

验证码*

您可以使用eMule或eMule Mod(Windows)、aMule(Win、Linux、Mac)等软件下载eD2k链接。。
eMule收藏集(.emulecollection)文件是您选中的所有链接的列表文件。eMule可以直接下载它们。
按住SHIFT键选择可以选中多个选择框。
可用文件名和大小选择器来选择文件。
文件名选择器帮您根据文件名称或后缀来选择文件。不分大小写。
符号使用:
和:空格( )、+
不包含:-
或:|
转义:一对英文引号("");
匹配开头:^
匹配结尾:$
例如:
选中所有名称中包含有“eMule”或“0.49c”字眼,但不包含有“exe”字眼的:emule|0.49c -exe
选中所有名称的开头是“eMule”,结尾是“0.49c”的:^emule 0.49c$
选中所有名称中带有“eMule 0.49c”的(必须是“eMule 0.49c”,中间没有别的字符,不能是“eMule fake 0.49c”),需要转义:"emule 0.49c"
大小选择器帮您根据文件大小选择文件。