当前位置: 首页 >> 海外电影 >> 反恐追缉令[中文字幕].Sooryavanshi.2021.1080p.NF.WEB-DL.DDP5.1.x264-btbt9527.com 7.58GB >> 正文

反恐追缉令[中文字幕].Sooryavanshi.2021.1080p.NF.WEB-DL.DDP5.1.x264-btbt9527.com 7.58GB

2021年12月05日 12:09:39     电影发布:来源于网络     电影分类:海外电影     评论(0)    

反恐追缉令[中文字幕].Sooryavanshi.2021.1080p.NF.WEB DL.DDP5.1.x264 btbt9527.com 7.58GB 犯罪片 惊悚片 动作片 海外电影  第1张

◎译 名 反恐追缉令 / 孟买特警

◎片 名 Sooryavanshi

◎年 代 2021

◎产 地 印度

◎类 别 动作 / 惊悚 / 犯罪

◎语 言 印地语

◎上映日期 2021-11-05(印度)

◎IMDb链接 https://www.imdb.com/title/tt9531772/

◎豆瓣链接 https://movie.douban.com/subject/33394526/

◎片 长 145分钟

◎导 演 罗希特·谢迪 Rohit Shetty (id:1032855)

◎编 剧 Yunus Sajawal Yunus Sajawal (id:1335839)

法尔哈德 Farhad (id:1339187)

罗希特·谢迪 Rohit Shetty (id:1032855)

卡伦·乔哈尔 Karan Johar (id:1018224)

◎演 员 阿克谢·库玛尔 Akshay Kumar (id:1049615)

卡特莉娜·卡芙 Katrina Kaif (id:1010569)

兰维尔·辛格 Ranveer Singh (id:1317064)

阿贾耶·德乌干 Ajay Devgan (id:1085455)

杰奇·史洛夫 Jackie Shroff (id:1007129)

古山·格罗维 Gulshan Grover (id:1049526)

尼基丁·迪尔 Nikitin Dheer (id:1332864)

贾维德·杰弗里 Javed Jaffrey (id:1353206)

维万·巴特那 Vivan Bhatena (id:1189939)

库玛·米什拉 Kumud Mishra (id:1365265)

沙棘·乔杜里 Shaji Chaudhary (id:1346011)

阿西夫·巴斯拉 Asif Basra (id:1402288)

Abhimanyu Singh Abhimanyu Singh (id:1464795)

古鲁·兰达瓦 Guru Randhawa (id:1423808)

◎标 签 印度电影 / 印影 / 犯罪 / 外语片 / 喜剧 / 印度 / 暴力美学 / 搞笑

◎简 介

讲述了印度反恐小组充满冒险的行动。

  1. ##### MediaInfo ######

  2. General

  3. Unique ID : 94097183236503470134056009493659601262 (0x46CA755258DD6D78B0D47FD1C4B9496E)

  4. Complete name : [email protected]

  5. Format : Matroska

  6. Format version : Version 4

  7. File size : 7.58 GiB

  8. Duration : 2 h 23 min

  9. Overall bit rate mode : Variable

  10. Overall bit rate : 7 544 kb/s

  11. Encoded date : UTC 2021-12-04 05:01:23

  12. Writing application : mkvmerge v62.0.0 ('Apollo') 64-bit

  13. Writing library : libebml v1.4.2 + libmatroska v1.6.4


  14. Video

  15. ID : 1

  16. Format : AVC

  17. Format/Info : Advanced Video Codec

  18. Format profile : [email protected]

  19. Format settings : CABAC / 3 Ref Frames

  20. Format settings, CABAC : Yes

  21. Format settings, Reference frames : 3 frames

  22. Format settings, GOP : M=3, N=48

  23. Codec ID : V_MPEG4/ISO/AVC

  24. Duration : 2 h 23 min

  25. Bit rate mode : Variable

  26. Bit rate : 3 699 kb/s

  27. Nominal bit rate : 3 406 kb/s

  28. Maximum bit rate : 7 665 kb/s

  29. Width : 1 920 pixels

  30. Height : 1 080 pixels

  31. Display aspect ratio : 16:9

  32. Frame rate mode : Constant

  33. Frame rate : 24.000 FPS

  34. Color space : YUV

  35. Chroma subsampling : 4:2:0

  36. Bit depth : 8 bits

  37. Scan type : Progressive

  38. Bits/(Pixel*Frame) : 0.074

  39. Stream size : 3.72 GiB (49%)

  40. Writing library : x264 core 148 r2727 7d026e8

  41. Encoding settings : cabac=1 / ref=3 / deblock=1:0:0 / analyse=0x1:0x111 / me=umh / subme=10 / psy=1 / psy_rd=1.00:0.00 / mixed_ref=1 / me_range=24 / chroma_me=1 / trellis=2 / 8x8dct=0 / cqm=0 / deadzone=21,11 / fast_pskip=1 / chroma_qp_offset=-2 / threads=8 / lookahead_threads=1 / sliced_threads=0 / nr=0 / decimate=1 / interlaced=0 / NTMzNTQ= / bluray_compat=0 / stitchable=1 / constrained_intra=0 / bframes=2 / b_pyramid=0 / b_adapt=2 / b_bias=0 / direct=3 / weightb=1 / open_gop=0 / weightp=2 / keyint=250 / keyint_min=24 / scenecut=0 / intra_refresh=0 / rc_lookahead=48 / rc=2pass / mbtree=1 / bitrate=3406 / ratetol=1.0 / qcomp=0.50 / qpmin=6 / qpmax=51 / qpstep=4 / cplxblur=20.0 / qblur=0.5 / vbv_maxrate=7665 / vbv_bufsize=10220 / nal_hrd=vbr / filler=0 / NTMzNTQ=LmsMAP37EqsCpk / ip_ratio=1.40 / aq=1:1.00

  42. Default : Yes

  43. Forced : No


  44. Audio #1

  45. ID : 2

  46. Format : E-AC-3

  47. Format/Info : Enhanced AC-3

  48. Commercial name : Dolby Digital Plus

  49. Codec ID : A_EAC3

  50. Duration : 2 h 23 min

  51. Bit rate mode : Constant

  52. Bit rate : 640 kb/s

  53. Channel(s) : 6 channels

  54. Channel layout : L R C LFE Ls Rs

  55. Sampling rate : 48.0 kHz

  56. Frame rate : 31.250 FPS (1536 SPF)

  57. Compression mode : Lossy

  58. Stream size : 658 MiB (8%)

  59. Title : Hindi

  60. Language : Hindi

  61. Service kind : Complete Main

  62. Default : Yes

  63. Forced : No


  64. Audio #2

  65. ID : 3

  66. Format : E-AC-3

  67. Format/Info : Enhanced AC-3

  68. Commercial name : Dolby Digital Plus

  69. Codec ID : A_EAC3

  70. Duration : 2 h 23 min

  71. Bit rate mode : Constant

  72. Bit rate : 640 kb/s

  73. Channel(s) : 6 channels

  74. Channel layout : L R C LFE Ls Rs

  75. Sampling rate : 48.0 kHz

  76. Frame rate : 31.250 FPS (1536 SPF)

  77. Compression mode : Lossy

  78. Stream size : 658 MiB (8%)

  79. Title : English

  80. Language : English

  81. Service kind : Complete Main

  82. Default : No

  83. Forced : No


  84. Audio #3

  85. ID : 4

  86. Format : E-AC-3

  87. Format/Info : Enhanced AC-3

  88. Commercial name : Dolby Digital Plus

  89. Codec ID : A_EAC3

  90. Duration : 2 h 23 min

  91. Bit rate mode : Constant

  92. Bit rate : 640 kb/s

  93. Channel(s) : 6 channels

  94. Channel layout : L R C LFE Ls Rs

  95. Sampling rate : 48.0 kHz

  96. Frame rate : 31.250 FPS (1536 SPF)

  97. Compression mode : Lossy

  98. Stream size : 658 MiB (8%)

  99. Title : Brazilian Portuguese

  100. Language : Portuguese

  101. Service kind : Complete Main

  102. Default : No

  103. Forced : No


  104. Audio #4

  105. ID : 5

  106. Format : E-AC-3

  107. Format/Info : Enhanced AC-3

  108. Commercial name : Dolby Digital Plus

  109. Codec ID : A_EAC3

  110. Duration : 2 h 23 min

  111. Bit rate mode : Constant

  112. Bit rate : 640 kb/s

  113. Channel(s) : 6 channels

  114. Channel layout : L R C LFE Ls Rs

  115. Sampling rate : 48.0 kHz

  116. Frame rate : 31.250 FPS (1536 SPF)

  117. Compression mode : Lossy

  118. Stream size : 658 MiB (8%)

  119. Title : Spanish

  120. Language : Spanish

  121. Service kind : Complete Main

  122. Default : No

  123. Forced : No


  124. Audio #5

  125. ID : 6

  126. Format : E-AC-3

  127. Format/Info : Enhanced AC-3

  128. Commercial name : Dolby Digital Plus

  129. Codec ID : A_EAC3

  130. Duration : 2 h 23 min

  131. Bit rate mode : Constant

  132. Bit rate : 640 kb/s

  133. Channel(s) : 6 channels

  134. Channel layout : L R C LFE Ls Rs

  135. Sampling rate : 48.0 kHz

  136. Frame rate : 31.250 FPS (1536 SPF)

  137. Compression mode : Lossy

  138. Stream size : 658 MiB (8%)

  139. Title : Tamil

  140. Language : Tamil

  141. Service kind : Complete Main

  142. Default : No

  143. Forced : No


  144. Audio #6

  145. ID : 7

  146. Format : E-AC-3

  147. Format/Info : Enhanced AC-3

  148. Commercial name : Dolby Digital Plus

  149. Codec ID : A_EAC3

  150. Duration : 2 h 23 min

  151. Bit rate mode : Constant

  152. Bit rate : 640 kb/s

  153. Channel(s) : 6 channels

  154. Channel layout : L R C LFE Ls Rs

  155. Sampling rate : 48.0 kHz

  156. Frame rate : 31.250 FPS (1536 SPF)

  157. Compression mode : Lossy

  158. Stream size : 658 MiB (8%)

  159. Title : Telugu

  160. Language : Telugu

  161. Service kind : Complete Main

  162. Default : No

  163. Forced : No


  164. Text #1

  165. ID : 8

  166. Format : UTF-8

  167. Codec ID : S_TEXT/UTF8

  168. Codec ID/Info : UTF-8 Plain Text

  169. Duration : 2 h 22 min

  170. Bit rate : 44 b/s

  171. Count of elements : 1270

  172. Stream size : 46.3 KiB (0%)

  173. Title : English

  174. Language : English

  175. Default : Yes

  176. Forced : No


  177. Text #2

  178. ID : 9

  179. Format : UTF-8

  180. Codec ID : S_TEXT/UTF8

  181. Codec ID/Info : UTF-8 Plain Text

  182. Duration : 2 h 22 min

  183. Bit rate : 43 b/s

  184. Count of elements : 1322

  185. Stream size : 45.8 KiB (0%)

  186. Title : Chinese Simplified

  187. Language : Chinese

  188. Default : No

  189. Forced : No


  190. Text #3

  191. ID : 10

  192. Format : UTF-8

  193. Codec ID : S_TEXT/UTF8

  194. Codec ID/Info : UTF-8 Plain Text

  195. Duration : 2 h 22 min

  196. Bit rate : 44 b/s

  197. Count of elements : 1467

  198. Stream size : 46.5 KiB (0%)

  199. Title : Chinese Traditional

  200. Language : Chinese

  201. Default : No

  202. Forced : No


  203. Text #4

  204. ID : 11

  205. Format : UTF-8

  206. Codec ID : S_TEXT/UTF8

  207. Codec ID/Info : UTF-8 Plain Text

  208. Duration : 2 h 22 min

  209. Bit rate : 52 b/s

  210. Count of elements : 1448

  211. Stream size : 54.7 KiB (0%)

  212. Title : French

  213. Language : French

  214. Default : No

  215. Forced : No


  216. Text #5

  217. ID : 12

  218. Format : UTF-8

  219. Codec ID : S_TEXT/UTF8

  220. Codec ID/Info : UTF-8 Plain Text

  221. Duration : 2 h 22 min

  222. Bit rate : 49 b/s

  223. Count of elements : 1436

  224. Stream size : 51.3 KiB (0%)

  225. Title : German

  226. Language : German

  227. Default : No

  228. Forced : No


  229. Text #6

  230. ID : 13

  231. Format : UTF-8

  232. Codec ID : S_TEXT/UTF8

  233. Codec ID/Info : UTF-8 Plain Text

  234. Duration : 2 h 23 min

  235. Bit rate : 145 b/s

  236. Count of elements : 1756

  237. Stream size : 153 KiB (0%)

  238. Title : Hindi

  239. Language : Hindi

  240. Default : No

  241. Forced : No


  242. Text #7

  243. ID : 14

  244. Format : UTF-8

  245. Codec ID : S_TEXT/UTF8

  246. Codec ID/Info : UTF-8 Plain Text

  247. Duration : 2 h 22 min

  248. Bit rate : 1 b/s

  249. Count of elements : 55

  250. Stream size : 1.57 KiB (0%)

  251. Title : Hindi (Forced)

  252. Language : Hindi

  253. Default : No

  254. Forced : Yes


  255. Text #8

  256. ID : 15

  257. Format : UTF-8

  258. Codec ID : S_TEXT/UTF8

  259. Codec ID/Info : UTF-8 Plain Text

  260. Duration : 2 h 22 min

  261. Bit rate : 47 b/s

  262. Count of elements : 1448

  263. Stream size : 49.4 KiB (0%)

  264. Title : Spanish

  265. Language : Spanish

  266. Default : No

  267. Forced : No




复制代码




文件下载


除非特别注明,本文『反恐追缉令[中文字幕].Sooryavanshi.2021.1080p.NF.WEB-DL.DDP5.1.x264-btbt9527.com 7.58GB』来源于互联网机器人自动抓取,非本站原创。 浮游电影网不对本文拥有版权,如有侵犯,请联系邮箱:fuyouu#yandex.com[#换成@]投诉。我们会在15个工作日内删除。 但烦请转载时请标明出处:“本文转载于『浮游电影网』,原文地址:https://www.fuyouu.com/19152.html

评论吧骚年!

发表你的见解   

昵称*

E-mail*(建议输入,以便收到博主回复的提示邮件)

验证码*

您可以使用eMule或eMule Mod(Windows)、aMule(Win、Linux、Mac)等软件下载eD2k链接。。
eMule收藏集(.emulecollection)文件是您选中的所有链接的列表文件。eMule可以直接下载它们。
按住SHIFT键选择可以选中多个选择框。
可用文件名和大小选择器来选择文件。
文件名选择器帮您根据文件名称或后缀来选择文件。不分大小写。
符号使用:
和:空格( )、+
不包含:-
或:|
转义:一对英文引号("");
匹配开头:^
匹配结尾:$
例如:
选中所有名称中包含有“eMule”或“0.49c”字眼,但不包含有“exe”字眼的:emule|0.49c -exe
选中所有名称的开头是“eMule”,结尾是“0.49c”的:^emule 0.49c$
选中所有名称中带有“eMule 0.49c”的(必须是“eMule 0.49c”,中间没有别的字符,不能是“eMule fake 0.49c”),需要转义:"emule 0.49c"
大小选择器帮您根据文件大小选择文件。