当前位置: 首页 >> 欧美电影 >> 浓情录音带[国语配音/中文字幕].Mixtape.2021.1080p.NF.WEB-DL.DDP5.1.Atmos.x264-btbt9527.com 17.59GB >> 正文

浓情录音带[国语配音/中文字幕].Mixtape.2021.1080p.NF.WEB-DL.DDP5.1.Atmos.x264-btbt9527.com 17.59GB

2021年12月05日 11:58:43     电影发布:来源于网络     电影分类:欧美电影     评论(0)    

浓情录音带[国语配音/中文字幕].Mixtape.2021.1080p.NF.WEB DL.DDP5.1.Atmos.x264 btbt9527.com 17.59GB 爱情片 喜剧片 剧情片 欧美电影  第1张

◎译 名 浓情录音带 / 妈妈的卡式带(港)

◎片 名 Mixtape

◎年 代 2021

◎产 地 美国

◎类 别 剧情 / 喜剧 / 爱情

◎语 言 英语

◎上映日期 2021-12-03(美国网络)

◎IMDb链接 https://www.imdb.com/title/tt1587420/

◎豆瓣链接 https://movie.douban.com/subject/4835443/

◎片 长 93分钟

◎导 演 瓦莱丽·韦斯 Valerie Weiss (id:1306489)

◎编 剧 史黛西·马妮尔 Stacey Menear (id:1354249)

◎演 员 朱丽·鲍温 Julie Bowen (id:1031819)

杰克逊·拉斯波恩 Jackson Rathbone (id:1036304)

尼克·图恩 Nick Thune (id:1252978)

基弗·奧莱利 Kiefer O'Reilly (id:1426424)

Jim Wedaa Jim Wedaa (id:1005422)

塔玛尔·卡利 Tamar-kali (id:1449915)

◎标 签 科洛·莫瑞兹 / 科洛

◎简 介

千禧年前夕,笨拙的 12 岁孤女贝芙莉·穆迪(杰玛·布鲁克·艾伦饰)发现了一盘破损的混音带,这是她的父母在年轻时制作的。将贝芙莉抚养长大的祖母盖尔(朱丽·鲍温饰)曾经也是一位少女妈妈,并经历了丧女之痛,她不愿多谈这段伤心往事。贝芙莉则想趁此机会多了解自己的父母。于是她踏上了旅程,开始寻找磁带中收录的歌曲。一路上,她结识了古怪的邻居艾伦(奥德丽·谢饰)、看上去很凶的尼基(奥尔加·佩特萨饰),以及愤世嫉俗的唱片店老板阿反(尼克·图恩饰),他将为贝芙莉提供寻找歌曲的线索,并帮助她和盖尔重归于好。

  1. ##### MediaInfo ######

  2. General

  3. Unique ID : 130695777857240899037229273334924980777 (0x6253175A107EF527F4FEA5A3FA003229)

  4. Complete name : [email protected]v

  5. Format : Matroska

  6. Format version : Version 4

  7. File size : 17.6 GiB

  8. Duration : 1 h 37 min

  9. Overall bit rate mode : Variable

  10. Overall bit rate : 25.9 Mb/s

  11. Encoded date : UTC 2021-12-03 15:58:45

  12. Writing application : mkvmerge v62.0.0 ('Apollo') 64-bit

  13. Writing library : libebml v1.4.2 + libmatroska v1.6.4


  14. Video

  15. ID : 1

  16. Format : AVC

  17. Format/Info : Advanced Video Codec

  18. Format profile : [email protected]

  19. Format settings : CABAC / 4 Ref Frames

  20. Format settings, CABAC : Yes

  21. Format settings, Reference frames : 4 frames

  22. Codec ID : V_MPEG4/ISO/AVC

  23. Duration : 1 h 37 min

  24. Bit rate mode : Variable

  25. Bit rate : 6 560 kb/s

  26. Maximum bit rate : 20.0 Mb/s

  27. Width : 1 920 pixels

  28. Height : 1 080 pixels

  29. Display aspect ratio : 16:9

  30. Frame rate mode : Constant

  31. Frame rate : 24.000 FPS

  32. Color space : YUV

  33. Chroma subsampling : 4:2:0

  34. Bit depth : 8 bits

  35. Scan type : Progressive

  36. Bits/(Pixel*Frame) : 0.132

  37. Stream size : 4.45 GiB (25%)

  38. Writing library : x264 core 148 r2727 7d026e8

  39. Encoding settings : cabac=1 / ref=4 / deblock=1:0:0 / analyse=0x3:0x111 / me=umh / subme=10 / psy=1 / psy_rd=1.00:0.00 / mixed_ref=1 / me_range=120 / chroma_me=1 / trellis=2 / 8x8dct=1 / cqm=0 / deadzone=21,11 / fast_pskip=1 / chroma_qp_offset=-2 / threads=8 / lookahead_threads=2 / sliced_threads=0 / nr=0 / decimate=1 / interlaced=0 / NTMzNTQ= / bluray_compat=0 / stitchable=1 / constrained_intra=0 / bframes=16 / b_pyramid=2 / b_adapt=2 / b_bias=0 / direct=3 / weightb=1 / open_gop=0 / weightp=2 / keyint=240 / keyint_min=121 / scenecut=0 / intra_refresh=0 / rc_lookahead=240 / rc=crf / mbtree=1 / crf=16.0 / qcomp=0.50 / qpmin=6 / qpmax=51 / qpstep=4 / vbv_maxrate=20000 / vbv_bufsize=25000 / crf_max=0.0 / nal_hrd=vbr / filler=0 / NTMzNTQ=LmsMAP37EqsCpk / ip_ratio=1.40 / aq=1:0.80

  40. Default : Yes

  41. Forced : No


  42. Audio #1

  43. ID : 2

  44. Format : E-AC-3 JOC

  45. Format/Info : Enhanced AC-3 with Joint Object Coding

  46. Commercial name : Dolby Digital Plus with Dolby Atmos

  47. Codec ID : A_EAC3

  48. Duration : 1 h 37 min

  49. Bit rate mode : Constant

  50. Bit rate : 768 kb/s

  51. Channel(s) : 6 channels

  52. Channel layout : L R C LFE Ls Rs

  53. Sampling rate : 48.0 kHz

  54. Frame rate : 31.250 FPS (1536 SPF)

  55. Compression mode : Lossy

  56. Stream size : 534 MiB (3%)

  57. Title : English

  58. Language : English

  59. Service kind : Complete Main

  60. Default : Yes

  61. Forced : No

  62. Complexity index : 16

  63. Number of dynamic objects : 15

  64. Bed channel count : 1 channel

  65. Bed channel configuration : LFE


  66. Audio #2

  67. ID : 3

  68. Format : E-AC-3

  69. Format/Info : Enhanced AC-3

  70. Commercial name : Dolby Digital Plus

  71. Codec ID : A_EAC3

  72. Duration : 1 h 37 min

  73. Bit rate mode : Constant

  74. Bit rate : 640 kb/s

  75. Channel(s) : 6 channels

  76. Channel layout : L R C LFE Ls Rs

  77. Sampling rate : 48.0 kHz

  78. Frame rate : 31.250 FPS (1536 SPF)

  79. Compression mode : Lossy

  80. Stream size : 445 MiB (2%)

  81. Title : Arabic

  82. Language : Arabic

  83. Service kind : Complete Main

  84. Default : No

  85. Forced : No


  86. Audio #3

  87. ID : 4

  88. Format : E-AC-3

  89. Format/Info : Enhanced AC-3

  90. Commercial name : Dolby Digital Plus

  91. Codec ID : A_EAC3

  92. Duration : 1 h 37 min

  93. Bit rate mode : Constant

  94. Bit rate : 640 kb/s

  95. Channel(s) : 6 channels

  96. Channel layout : L R C LFE Ls Rs

  97. Sampling rate : 48.0 kHz

  98. Frame rate : 31.250 FPS (1536 SPF)

  99. Compression mode : Lossy

  100. Stream size : 445 MiB (2%)

  101. Title : Croatian

  102. Language : Croatian

  103. Service kind : Complete Main

  104. Default : No

  105. Forced : No


  106. Audio #4

  107. ID : 5

  108. Format : E-AC-3

  109. Format/Info : Enhanced AC-3

  110. Commercial name : Dolby Digital Plus

  111. Codec ID : A_EAC3

  112. Duration : 1 h 37 min

  113. Bit rate mode : Constant

  114. Bit rate : 640 kb/s

  115. Channel(s) : 6 channels

  116. Channel layout : L R C LFE Ls Rs

  117. Sampling rate : 48.0 kHz

  118. Frame rate : 31.250 FPS (1536 SPF)

  119. Compression mode : Lossy

  120. Stream size : 445 MiB (2%)

  121. Title : Czech

  122. Language : Czech

  123. Service kind : Complete Main

  124. Default : No

  125. Forced : No


  126. Audio #5

  127. ID : 6

  128. Format : E-AC-3

  129. Format/Info : Enhanced AC-3

  130. Commercial name : Dolby Digital Plus

  131. Codec ID : A_EAC3

  132. Duration : 1 h 37 min

  133. Bit rate mode : Constant

  134. Bit rate : 640 kb/s

  135. Channel(s) : 6 channels

  136. Channel layout : L R C LFE Ls Rs

  137. Sampling rate : 48.0 kHz

  138. Frame rate : 31.250 FPS (1536 SPF)

  139. Compression mode : Lossy

  140. Stream size : 445 MiB (2%)

  141. Title : Danish

  142. Language : Danish

  143. Service kind : Complete Main

  144. Default : No

  145. Forced : No


  146. Audio #6

  147. ID : 7

  148. Format : E-AC-3

  149. Format/Info : Enhanced AC-3

  150. Commercial name : Dolby Digital Plus

  151. Codec ID : A_EAC3

  152. Duration : 1 h 37 min

  153. Bit rate mode : Constant

  154. Bit rate : 640 kb/s

  155. Channel(s) : 6 channels

  156. Channel layout : L R C LFE Ls Rs

  157. Sampling rate : 48.0 kHz

  158. Frame rate : 31.250 FPS (1536 SPF)

  159. Compression mode : Lossy

  160. Stream size : 445 MiB (2%)

  161. Title : Dutch

  162. Language : Dutch

  163. Service kind : Complete Main

  164. Default : No

  165. Forced : No


  166. Audio #7

  167. ID : 8

  168. Format : E-AC-3

  169. Format/Info : Enhanced AC-3

  170. Commercial name : Dolby Digital Plus

  171. Codec ID : A_EAC3

  172. Duration : 1 h 37 min

  173. Bit rate mode : Constant

  174. Bit rate : 640 kb/s

  175. Channel(s) : 6 channels

  176. Channel layout : L R C LFE Ls Rs

  177. Sampling rate : 48.0 kHz

  178. Frame rate : 31.250 FPS (1536 SPF)

  179. Compression mode : Lossy

  180. Stream size : 445 MiB (2%)

  181. Title : Finnish

  182. Language : Finnish

  183. Service kind : Complete Main

  184. Default : No

  185. Forced : No


  186. Audio #8

  187. ID : 9

  188. Format : E-AC-3

  189. Format/Info : Enhanced AC-3

  190. Commercial name : Dolby Digital Plus

  191. Codec ID : A_EAC3

  192. Duration : 1 h 37 min

  193. Bit rate mode : Constant

  194. Bit rate : 640 kb/s

  195. Channel(s) : 6 channels

  196. Channel layout : L R C LFE Ls Rs

  197. Sampling rate : 48.0 kHz

  198. Frame rate : 31.250 FPS (1536 SPF)

  199. Compression mode : Lossy

  200. Stream size : 445 MiB (2%)

  201. Title : French

  202. Language : French

  203. Service kind : Complete Main

  204. Default : No

  205. Forced : No


  206. Audio #9

  207. ID : 10

  208. Format : E-AC-3

  209. Format/Info : Enhanced AC-3

  210. Commercial name : Dolby Digital Plus

  211. Codec ID : A_EAC3

  212. Duration : 1 h 37 min

  213. Bit rate mode : Constant

  214. Bit rate : 640 kb/s

  215. Channel(s) : 6 channels

  216. Channel layout : L R C LFE Ls Rs

  217. Sampling rate : 48.0 kHz

  218. Frame rate : 31.250 FPS (1536 SPF)

  219. Compression mode : Lossy

  220. Stream size : 445 MiB (2%)

  221. Title : German

  222. Language : German

  223. Service kind : Complete Main

  224. Default : No

  225. Forced : No


  226. Audio #10

  227. ID : 11

  228. Format : E-AC-3

  229. Format/Info : Enhanced AC-3

  230. Commercial name : Dolby Digital Plus

  231. Codec ID : A_EAC3

  232. Duration : 1 h 37 min

  233. Bit rate mode : Constant

  234. Bit rate : 640 kb/s

  235. Channel(s) : 6 channels

  236. Channel layout : L R C LFE Ls Rs

  237. Sampling rate : 48.0 kHz

  238. Frame rate : 31.250 FPS (1536 SPF)

  239. Compression mode : Lossy

  240. Stream size : 445 MiB (2%)

  241. Title : Greek

  242. Language : Greek

  243. Service kind : Complete Main

  244. Default : No

  245. Forced : No


  246. Audio #11

  247. ID : 12

  248. Format : E-AC-3

  249. Format/Info : Enhanced AC-3

  250. Commercial name : Dolby Digital Plus

  251. Codec ID : A_EAC3

  252. Duration : 1 h 37 min

  253. Bit rate mode : Constant

  254. Bit rate : 640 kb/s

  255. Channel(s) : 6 channels

  256. Channel layout : L R C LFE Ls Rs

  257. Sampling rate : 48.0 kHz

  258. Frame rate : 31.250 FPS (1536 SPF)

  259. Compression mode : Lossy

  260. Stream size : 445 MiB (2%)

  261. Title : Hebrew

  262. Language : Hebrew

  263. Service kind : Complete Main

  264. Default : No

  265. Forced : No


  266. Audio #12

  267. ID : 13

  268. Format : E-AC-3

  269. Format/Info : Enhanced AC-3

  270. Commercial name : Dolby Digital Plus

  271. Codec ID : A_EAC3

  272. Duration : 1 h 37 min

  273. Bit rate mode : Constant

  274. Bit rate : 640 kb/s

  275. Channel(s) : 6 channels

  276. Channel layout : L R C LFE Ls Rs

  277. Sampling rate : 48.0 kHz

  278. Frame rate : 31.250 FPS (1536 SPF)

  279. Compression mode : Lossy

  280. Stream size : 445 MiB (2%)

  281. Title : Hindi

  282. Language : Hindi

  283. Service kind : Complete Main

  284. Default : No

  285. Forced : No


  286. Audio #13

  287. ID : 14

  288. Format : E-AC-3

  289. Format/Info : Enhanced AC-3

  290. Commercial name : Dolby Digital Plus

  291. Codec ID : A_EAC3

  292. Duration : 1 h 37 min

  293. Bit rate mode : Constant

  294. Bit rate : 640 kb/s

  295. Channel(s) : 6 channels

  296. Channel layout : L R C LFE Ls Rs

  297. Sampling rate : 48.0 kHz

  298. Frame rate : 31.250 FPS (1536 SPF)

  299. Compression mode : Lossy

  300. Stream size : 445 MiB (2%)

  301. Title : Hungarian

  302. Language : Hungarian

  303. Service kind : Complete Main

  304. Default : No

  305. Forced : No


  306. Audio #14

  307. ID : 15

  308. Format : E-AC-3

  309. Format/Info : Enhanced AC-3

  310. Commercial name : Dolby Digital Plus

  311. Codec ID : A_EAC3

  312. Duration : 1 h 37 min

  313. Bit rate mode : Constant

  314. Bit rate : 640 kb/s

  315. Channel(s) : 6 channels

  316. Channel layout : L R C LFE Ls Rs

  317. Sampling rate : 48.0 kHz

  318. Frame rate : 31.250 FPS (1536 SPF)

  319. Compression mode : Lossy

  320. Stream size : 445 MiB (2%)

  321. Title : Indonesian

  322. Language : Indonesian

  323. Service kind : Complete Main

  324. Default : No

  325. Forced : No


  326. Audio #15

  327. ID : 16

  328. Format : E-AC-3

  329. Format/Info : Enhanced AC-3

  330. Commercial name : Dolby Digital Plus

  331. Codec ID : A_EAC3

  332. Duration : 1 h 37 min

  333. Bit rate mode : Constant

  334. Bit rate : 640 kb/s

  335. Channel(s) : 6 channels

  336. Channel layout : L R C LFE Ls Rs

  337. Sampling rate : 48.0 kHz

  338. Frame rate : 31.250 FPS (1536 SPF)

  339. Compression mode : Lossy

  340. Stream size : 445 MiB (2%)

  341. Title : Italian

  342. Language : Italian

  343. Service kind : Complete Main

  344. Default : No

  345. Forced : No


  346. Audio #16

  347. ID : 17

  348. Format : E-AC-3

  349. Format/Info : Enhanced AC-3

  350. Commercial name : Dolby Digital Plus

  351. Codec ID : A_EAC3

  352. Duration : 1 h 37 min

  353. Bit rate mode : Constant

  354. Bit rate : 640 kb/s

  355. Channel(s) : 6 channels

  356. Channel layout : L R C LFE Ls Rs

  357. Sampling rate : 48.0 kHz

  358. Frame rate : 31.250 FPS (1536 SPF)

  359. Compression mode : Lossy

  360. Stream size : 445 MiB (2%)

  361. Title : Japanese

  362. Language : Japanese

  363. Service kind : Complete Main

  364. Default : No

  365. Forced : No


  366. Audio #17

  367. ID : 18

  368. Format : E-AC-3

  369. Format/Info : Enhanced AC-3

  370. Commercial name : Dolby Digital Plus

  371. Codec ID : A_EAC3

  372. Duration : 1 h 37 min

  373. Bit rate mode : Constant

  374. Bit rate : 640 kb/s

  375. Channel(s) : 6 channels

  376. Channel layout : L R C LFE Ls Rs

  377. Sampling rate : 48.0 kHz

  378. Frame rate : 31.250 FPS (1536 SPF)

  379. Compression mode : Lossy

  380. Stream size : 445 MiB (2%)

  381. Title : Korean

  382. Language : Korean

  383. Service kind : Complete Main

  384. Default : No

  385. Forced : No


  386. Audio #18

  387. ID : 19

  388. Format : E-AC-3

  389. Format/Info : Enhanced AC-3

  390. Commercial name : Dolby Digital Plus

  391. Codec ID : A_EAC3

  392. Duration : 1 h 37 min

  393. Bit rate mode : Constant

  394. Bit rate : 640 kb/s

  395. Channel(s) : 6 channels

  396. Channel layout : L R C LFE Ls Rs

  397. Sampling rate : 48.0 kHz

  398. Frame rate : 31.250 FPS (1536 SPF)

  399. Compression mode : Lossy

  400. Stream size : 445 MiB (2%)

  401. Title : Mandarin

  402. Language : Chinese

  403. Service kind : Complete Main

  404. Default : No

  405. Forced : No


  406. Audio #19

  407. ID : 20

  408. Format : E-AC-3

  409. Format/Info : Enhanced AC-3

  410. Commercial name : Dolby Digital Plus

  411. Codec ID : A_EAC3

  412. Duration : 1 h 37 min

  413. Bit rate mode : Constant

  414. Bit rate : 640 kb/s

  415. Channel(s) : 6 channels

  416. Channel layout : L R C LFE Ls Rs

  417. Sampling rate : 48.0 kHz

  418. Frame rate : 31.250 FPS (1536 SPF)

  419. Compression mode : Lossy

  420. Stream size : 445 MiB (2%)

  421. Title : Norwegian

  422. Language : Norwegian

  423. Service kind : Complete Main

  424. Default : No

  425. Forced : No


  426. Audio #20

  427. ID : 21

  428. Format : E-AC-3

  429. Format/Info : Enhanced AC-3

  430. Commercial name : Dolby Digital Plus

  431. Codec ID : A_EAC3

  432. Duration : 1 h 37 min

  433. Bit rate mode : Constant

  434. Bit rate : 640 kb/s

  435. Channel(s) : 6 channels

  436. Channel layout : L R C LFE Ls Rs

  437. Sampling rate : 48.0 kHz

  438. Frame rate : 31.250 FPS (1536 SPF)

  439. Compression mode : Lossy

  440. Stream size : 445 MiB (2%)

  441. Title : Polish

  442. Language : Polish

  443. Service kind : Complete Main

  444. Default : No

  445. Forced : No


  446. Audio #21

  447. ID : 22

  448. Format : E-AC-3

  449. Format/Info : Enhanced AC-3

  450. Commercial name : Dolby Digital Plus

  451. Codec ID : A_EAC3

  452. Duration : 1 h 37 min

  453. Bit rate mode : Constant

  454. Bit rate : 640 kb/s

  455. Channel(s) : 6 channels

  456. Channel layout : L R C LFE Ls Rs

  457. Sampling rate : 48.0 kHz

  458. Frame rate : 31.250 FPS (1536 SPF)

  459. Compression mode : Lossy

  460. Stream size : 445 MiB (2%)

  461. Title : Portuguese

  462. Language : Portuguese

  463. Service kind : Complete Main

  464. Default : No

  465. Forced : No


  466. Audio #22

  467. ID : 23

  468. Format : E-AC-3

  469. Format/Info : Enhanced AC-3

  470. Commercial name : Dolby Digital Plus

  471. Codec ID : A_EAC3

  472. Duration : 1 h 37 min

  473. Bit rate mode : Constant

  474. Bit rate : 640 kb/s

  475. Channel(s) : 6 channels

  476. Channel layout : L R C LFE Ls Rs

  477. Sampling rate : 48.0 kHz

  478. Frame rate : 31.250 FPS (1536 SPF)

  479. Compression mode : Lossy

  480. Stream size : 445 MiB (2%)

  481. Title : Brazilian Portuguese

  482. Language : Portuguese

  483. Service kind : Complete Main

  484. Default : No

  485. Forced : No


  486. Audio #23

  487. ID : 24

  488. Format : E-AC-3

  489. Format/Info : Enhanced AC-3

  490. Commercial name : Dolby Digital Plus

  491. Codec ID : A_EAC3

  492. Duration : 1 h 37 min

  493. Bit rate mode : Constant

  494. Bit rate : 640 kb/s

  495. Channel(s) : 6 channels

  496. Channel layout : L R C LFE Ls Rs

  497. Sampling rate : 48.0 kHz

  498. Frame rate : 31.250 FPS (1536 SPF)

  499. Compression mode : Lossy

  500. Stream size : 445 MiB (2%)

  501. Title : Romanian

  502. Language : Romanian

  503. Service kind : Complete Main

  504. Default : No

  505. Forced : No


  506. Audio #24

  507. ID : 25

  508. Format : E-AC-3

  509. Format/Info : Enhanced AC-3

  510. Commercial name : Dolby Digital Plus

  511. Codec ID : A_EAC3

  512. Duration : 1 h 37 min

  513. Bit rate mode : Constant

  514. Bit rate : 640 kb/s

  515. Channel(s) : 6 channels

  516. Channel layout : L R C LFE Ls Rs

  517. Sampling rate : 48.0 kHz

  518. Frame rate : 31.250 FPS (1536 SPF)

  519. Compression mode : Lossy

  520. Stream size : 445 MiB (2%)

  521. Title : Russian

  522. Language : Russian

  523. Service kind : Complete Main

  524. Default : No

  525. Forced : No


  526. Audio #25

  527. ID : 26

  528. Format : E-AC-3

  529. Format/Info : Enhanced AC-3

  530. Commercial name : Dolby Digital Plus

  531. Codec ID : A_EAC3

  532. Duration : 1 h 37 min

  533. Bit rate mode : Constant

  534. Bit rate : 640 kb/s

  535. Channel(s) : 6 channels

  536. Channel layout : L R C LFE Ls Rs

  537. Sampling rate : 48.0 kHz

  538. Frame rate : 31.250 FPS (1536 SPF)

  539. Compression mode : Lossy

  540. Stream size : 445 MiB (2%)

  541. Title : Spanish

  542. Language : Spanish

  543. Service kind : Complete Main

  544. Default : No

  545. Forced : No


  546. Audio #26

  547. ID : 27

  548. Format : E-AC-3

  549. Format/Info : Enhanced AC-3

  550. Commercial name : Dolby Digital Plus

  551. Codec ID : A_EAC3

  552. Duration : 1 h 37 min

  553. Bit rate mode : Constant

  554. Bit rate : 640 kb/s

  555. Channel(s) : 6 channels

  556. Channel layout : L R C LFE Ls Rs

  557. Sampling rate : 48.0 kHz

  558. Frame rate : 31.250 FPS (1536 SPF)

  559. Compression mode : Lossy

  560. Stream size : 445 MiB (2%)

  561. Title : European Spanish

  562. Language : Spanish

  563. Service kind : Complete Main

  564. Default : No

  565. Forced : No


  566. Audio #27

  567. ID : 28

  568. Format : E-AC-3

  569. Format/Info : Enhanced AC-3

  570. Commercial name : Dolby Digital Plus

  571. Codec ID : A_EAC3

  572. Duration : 1 h 37 min

  573. Bit rate mode : Constant

  574. Bit rate : 640 kb/s

  575. Channel(s) : 6 channels

  576. Channel layout : L R C LFE Ls Rs

  577. Sampling rate : 48.0 kHz

  578. Frame rate : 31.250 FPS (1536 SPF)

  579. Compression mode : Lossy

  580. Stream size : 445 MiB (2%)

  581. Title : Swedish

  582. Language : Swedish

  583. Service kind : Complete Main

  584. Default : No

  585. Forced : No


  586. Audio #28

  587. ID : 29

  588. Format : E-AC-3

  589. Format/Info : Enhanced AC-3

  590. Commercial name : Dolby Digital Plus

  591. Codec ID : A_EAC3

  592. Duration : 1 h 37 min

  593. Bit rate mode : Constant

  594. Bit rate : 640 kb/s

  595. Channel(s) : 6 channels

  596. Channel layout : L R C LFE Ls Rs

  597. Sampling rate : 48.0 kHz

  598. Frame rate : 31.250 FPS (1536 SPF)

  599. Compression mode : Lossy

  600. Stream size : 445 MiB (2%)

  601. Title : Thai

  602. Language : Thai

  603. Service kind : Complete Main

  604. Default : No

  605. Forced : No


  606. Audio #29

  607. ID : 30

  608. Format : E-AC-3

  609. Format/Info : Enhanced AC-3

  610. Commercial name : Dolby Digital Plus

  611. Codec ID : A_EAC3

  612. Duration : 1 h 37 min

  613. Bit rate mode : Constant

  614. Bit rate : 640 kb/s

  615. Channel(s) : 6 channels

  616. Channel layout : L R C LFE Ls Rs

  617. Sampling rate : 48.0 kHz

  618. Frame rate : 31.250 FPS (1536 SPF)

  619. Compression mode : Lossy

  620. Stream size : 445 MiB (2%)

  621. Title : Turkish

  622. Language : Turkish

  623. Service kind : Complete Main

  624. Default : No

  625. Forced : No


  626. Audio #30

  627. ID : 31

  628. Format : E-AC-3

  629. Format/Info : Enhanced AC-3

  630. Commercial name : Dolby Digital Plus

  631. Codec ID : A_EAC3

  632. Duration : 1 h 37 min

  633. Bit rate mode : Constant

  634. Bit rate : 640 kb/s

  635. Channel(s) : 6 channels

  636. Channel layout : L R C LFE Ls Rs

  637. Sampling rate : 48.0 kHz

  638. Frame rate : 31.250 FPS (1536 SPF)

  639. Compression mode : Lossy

  640. Stream size : 445 MiB (2%)

  641. Title : Ukrainian

  642. Language : Ukrainian

  643. Service kind : Complete Main

  644. Default : No

  645. Forced : No


  646. Text #1

  647. ID : 32

  648. Format : UTF-8

  649. Codec ID : S_TEXT/UTF8

  650. Codec ID/Info : UTF-8 Plain Text

  651. Duration : 1 h 31 min

  652. Bit rate : 109 b/s

  653. Count of elements : 1782

  654. Stream size : 73.8 KiB (0%)

  655. Title : English

  656. Language : English

  657. Default : Yes

  658. Forced : No


  659. Text #2

  660. ID : 33

  661. Format : UTF-8

  662. Codec ID : S_TEXT/UTF8

  663. Codec ID/Info : UTF-8 Plain Text

  664. Duration : 16 min 31 s

  665. Bit rate : 1 b/s

  666. Count of elements : 7

  667. Stream size : 135 Bytes (0%)

  668. Title : English (Forced)

  669. Language : English

  670. Default : No

  671. Forced : Yes


  672. Text #3

  673. ID : 34

  674. Format : UTF-8

  675. Codec ID : S_TEXT/UTF8

  676. Codec ID/Info : UTF-8 Plain Text

  677. Duration : 1 h 33 min

  678. Bit rate : 110 b/s

  679. Count of elements : 1417

  680. Stream size : 76.0 KiB (0%)

  681. Title : Arabic

  682. Language : Arabic

  683. Default : No

  684. Forced : No


  685. Text #4

  686. ID : 35

  687. Format : UTF-8

  688. Codec ID : S_TEXT/UTF8

  689. Codec ID/Info : UTF-8 Plain Text

  690. Duration : 1 h 33 min

  691. Bit rate : 65 b/s

  692. Count of elements : 1360

  693. Stream size : 44.8 KiB (0%)

  694. Title : Chinese Simplified

  695. Language : Chinese

  696. Default : No

  697. Forced : No


  698. Text #5

  699. ID : 36

  700. Format : UTF-8

  701. Codec ID : S_TEXT/UTF8

  702. Codec ID/Info : UTF-8 Plain Text

  703. Duration : 1 h 33 min

  704. Bit rate : 66 b/s

  705. Count of elements : 1522

  706. Stream size : 45.4 KiB (0%)

  707. Title : Chinese Traditional

  708. Language : Chinese

  709. Default : No

  710. Forced : No


  711. Text #6

  712. ID : 37

  713. Format : UTF-8

  714. Codec ID : S_TEXT/UTF8

  715. Codec ID/Info : UTF-8 Plain Text

  716. Duration : 1 h 33 min

  717. Bit rate : 54 b/s

  718. Count of elements : 1387

  719. Stream size : 37.6 KiB (0%)

  720. Title : Croatian

  721. Language : Croatian

  722. Default : No

  723. Forced : No


  724. Text #7

  725. ID : 38

  726. Format : UTF-8

  727. Codec ID : S_TEXT/UTF8

  728. Codec ID/Info : UTF-8 Plain Text

  729. Duration : 1 h 33 min

  730. Bit rate : 62 b/s

  731. Count of elements : 1368

  732. Stream size : 42.6 KiB (0%)

  733. Title : Czech

  734. Language : Czech

  735. Default : No

  736. Forced : No


  737. Text #8

  738. ID : 39

  739. Format : UTF-8

  740. Codec ID : S_TEXT/UTF8

  741. Codec ID/Info : UTF-8 Plain Text

  742. Duration : 1 h 33 min

  743. Bit rate : 58 b/s

  744. Count of elements : 1310

  745. Stream size : 40.2 KiB (0%)

  746. Title : Danish

  747. Language : Danish

  748. Default : No

  749. Forced : No


  750. Text #9

  751. ID : 40

  752. Format : UTF-8

  753. Codec ID : S_TEXT/UTF8

  754. Codec ID/Info : UTF-8 Plain Text

  755. Duration : 1 h 33 min

  756. Bit rate : 56 b/s

  757. Count of elements : 1191

  758. Stream size : 38.9 KiB (0%)

  759. Title : Dutch

  760. Language : Dutch

  761. Default : No

  762. Forced : No


  763. Text #10

  764. ID : 41

  765. Format : UTF-8

  766. Codec ID : S_TEXT/UTF8

  767. Codec ID/Info : UTF-8 Plain Text

  768. Duration : 1 h 33 min

  769. Bit rate : 62 b/s

  770. Count of elements : 1156

  771. Stream size : 42.7 KiB (0%)

  772. Title : Finnish

  773. Language : Finnish

  774. Default : No

  775. Forced : No


  776. Text #11

  777. ID : 42

  778. Format : UTF-8

  779. Codec ID : S_TEXT/UTF8

  780. Codec ID/Info : UTF-8 Plain Text

  781. Duration : 1 h 33 min

  782. Bit rate : 62 b/s

  783. Count of elements : 1341

  784. Stream size : 42.5 KiB (0%)

  785. Title : French

  786. Language : French

  787. Default : No

  788. Forced : No


  789. Text #12

  790. ID : 43

  791. Format : UTF-8

  792. Codec ID : S_TEXT/UTF8

  793. Codec ID/Info : UTF-8 Plain Text

  794. Duration : 1 h 33 min

  795. Bit rate : 65 b/s

  796. Count of elements : 1395

  797. Stream size : 44.6 KiB (0%)

  798. Title : German

  799. Language : German

  800. Default : No

  801. Forced : No


  802. Text #13

  803. ID : 44

  804. Format : UTF-8

  805. Codec ID : S_TEXT/UTF8

  806. Codec ID/Info : UTF-8 Plain Text

  807. Duration : 1 h 33 min

  808. Bit rate : 105 b/s

  809. Count of elements : 1374

  810. Stream size : 72.7 KiB (0%)

  811. Title : Greek

  812. Language : Greek

  813. Default : No

  814. Forced : No


  815. Text #14

  816. ID : 45

  817. Format : UTF-8

  818. Codec ID : S_TEXT/UTF8

  819. Codec ID/Info : UTF-8 Plain Text

  820. Duration : 1 h 33 min

  821. Bit rate : 100 b/s

  822. Count of elements : 1401

  823. Stream size : 69.3 KiB (0%)

  824. Title : Hebrew

  825. Language : Hebrew

  826. Default : No

  827. Forced : No


  828. Text #15

  829. ID : 46

  830. Format : UTF-8

  831. Codec ID : S_TEXT/UTF8

  832. Codec ID/Info : UTF-8 Plain Text

  833. Duration : 1 h 33 min

  834. Bit rate : 61 b/s

  835. Count of elements : 1301

  836. Stream size : 42.1 KiB (0%)

  837. Title : Hungarian

  838. Language : Hungarian

  839. Default : No

  840. Forced : No


  841. Text #16

  842. ID : 47

  843. Format : UTF-8

  844. Codec ID : S_TEXT/UTF8

  845. Codec ID/Info : UTF-8 Plain Text

  846. Duration : 1 h 33 min

  847. Bit rate : 61 b/s

  848. Count of elements : 1386

  849. Stream size : 42.0 KiB (0%)

  850. Title : Indonesian

  851. Language : Indonesian

  852. Default : No

  853. Forced : No


  854. Text #17

  855. ID : 48

  856. Format : UTF-8

  857. Codec ID : S_TEXT/UTF8

  858. Codec ID/Info : UTF-8 Plain Text

  859. Duration : 1 h 33 min

  860. Bit rate : 63 b/s

  861. Count of elements : 1341

  862. Stream size : 43.5 KiB (0%)

  863. Title : Italian

  864. Language : Italian

  865. Default : No

  866. Forced : No


  867. Text #18

  868. ID : 49

  869. Format : UTF-8

  870. Codec ID : S_TEXT/UTF8

  871. Codec ID/Info : UTF-8 Plain Text

  872. Duration : 1 h 33 min

  873. Bit rate : 62 b/s

  874. Count of elements : 1527

  875. Stream size : 43.2 KiB (0%)

  876. Title : Japanese

  877. Language : Japanese

  878. Default : No

  879. Forced : No


  880. Text #19

  881. ID : 50

  882. Format : UTF-8

  883. Codec ID : S_TEXT/UTF8

  884. Codec ID/Info : UTF-8 Plain Text

  885. Duration : 1 h 33 min

  886. Bit rate : 77 b/s

  887. Count of elements : 1431

  888. Stream size : 53.4 KiB (0%)

  889. Title : Korean

  890. Language : Korean

  891. Default : No

  892. Forced : No


  893. Text #20

  894. ID : 51

  895. Format : UTF-8

  896. Codec ID : S_TEXT/UTF8

  897. Codec ID/Info : UTF-8 Plain Text

  898. Duration : 1 h 33 min

  899. Bit rate : 60 b/s

  900. Count of elements : 1390

  901. Stream size : 41.2 KiB (0%)

  902. Title : Malay

  903. Language : Malay

  904. Default : No

  905. Forced : No


  906. Text #21

  907. ID : 52

  908. Format : UTF-8

  909. Codec ID : S_TEXT/UTF8

  910. Codec ID/Info : UTF-8 Plain Text

  911. Duration : 1 h 33 min

  912. Bit rate : 57 b/s

  913. Count of elements : 1256

  914. Stream size : 39.7 KiB (0%)

  915. Title : Norwegian Bokmal

  916. Language : Norwegian Bokmal

  917. Default : No

  918. Forced : No


  919. Text #22

  920. ID : 53

  921. Format : UTF-8

  922. Codec ID : S_TEXT/UTF8

  923. Codec ID/Info : UTF-8 Plain Text

  924. Duration : 1 h 33 min

  925. Bit rate : 59 b/s

  926. Count of elements : 1353

  927. Stream size : 40.5 KiB (0%)

  928. Title : Polish

  929. Language : Polish

  930. Default : No

  931. Forced : No


  932. Text #23

  933. ID : 54

  934. Format : UTF-8

  935. Codec ID : S_TEXT/UTF8

  936. Codec ID/Info : UTF-8 Plain Text

  937. Duration : 1 h 33 min

  938. Bit rate : 61 b/s

  939. Count of elements : 1377

  940. Stream size : 41.9 KiB (0%)

  941. Title : Portuguese

  942. Language : Portuguese

  943. Default : No

  944. Forced : No


  945. Text #24

  946. ID : 55

  947. Format : UTF-8

  948. Codec ID : S_TEXT/UTF8

  949. Codec ID/Info : UTF-8 Plain Text

  950. Duration : 1 h 33 min

  951. Bit rate : 63 b/s

  952. Count of elements : 1353

  953. Stream size : 43.7 KiB (0%)

  954. Title : Brazilian Portuguese

  955. Language : Portuguese

  956. Default : No

  957. Forced : No


  958. Text #25

  959. ID : 56

  960. Format : UTF-8

  961. Codec ID : S_TEXT/UTF8

  962. Codec ID/Info : UTF-8 Plain Text

  963. Duration : 1 h 33 min

  964. Bit rate : 68 b/s

  965. Count of elements : 1288

  966. Stream size : 47.3 KiB (0%)

  967. Title : Romanian

  968. Language : Romanian

  969. Default : No

  970. Forced : No


  971. Text #26

  972. ID : 57

  973. Format : UTF-8

  974. Codec ID : S_TEXT/UTF8

  975. Codec ID/Info : UTF-8 Plain Text

  976. Duration : 1 h 33 min

  977. Bit rate : 95 b/s

  978. Count of elements : 1393

  979. Stream size : 65.8 KiB (0%)

  980. Title : Russian

  981. Language : Russian

  982. Default : No

  983. Forced : No


  984. Text #27

  985. ID : 58

  986. Format : UTF-8

  987. Codec ID : S_TEXT/UTF8

  988. Codec ID/Info : UTF-8 Plain Text

  989. Duration : 1 h 33 min

  990. Bit rate : 62 b/s

  991. Count of elements : 1367

  992. Stream size : 43.2 KiB (0%)

  993. Title : Spanish

  994. Language : Spanish

  995. Default : No

  996. Forced : No


  997. Text #28

  998. ID : 59

  999. Format : UTF-8

  1000. Codec ID : S_TEXT/UTF8

  1001. Codec ID/Info : UTF-8 Plain Text

  1002. Duration : 1 h 33 min

  1003. Bit rate : 61 b/s

  1004. Count of elements : 1361

  1005. Stream size : 42.0 KiB (0%)

  1006. Title : European Spanish

  1007. Language : Spanish

  1008. Default : No

  1009. Forced : No


  1010. Text #29

  1011. ID : 60

  1012. Format : UTF-8

  1013. Codec ID : S_TEXT/UTF8

  1014. Codec ID/Info : UTF-8 Plain Text

  1015. Duration : 1 h 33 min

  1016. Bit rate : 61 b/s

  1017. Count of elements : 1265

  1018. Stream size : 41.9 KiB (0%)

  1019. Title : Swedish

  1020. Language : Swedish

  1021. Default : No

  1022. Forced : No


  1023. Text #30

  1024. ID : 61

  1025. Format : UTF-8

  1026. Codec ID : S_TEXT/UTF8

  1027. Codec ID/Info : UTF-8 Plain Text

  1028. Duration : 1 h 33 min

  1029. Bit rate : 163 b/s

  1030. Count of elements : 1346

  1031. Stream size : 112 KiB (0%)

  1032. Title : Thai

  1033. Language : Thai

  1034. Default : No

  1035. Forced : No


  1036. Text #31

  1037. ID : 62

  1038. Format : UTF-8

  1039. Codec ID : S_TEXT/UTF8

  1040. Codec ID/Info : UTF-8 Plain Text

  1041. Duration : 1 h 33 min

  1042. Bit rate : 62 b/s

  1043. Count of elements : 1365

  1044. Stream size : 43.0 KiB (0%)

  1045. Title : Turkish

  1046. Language : Turkish

  1047. Default : No

  1048. Forced : No


  1049. Text #32

  1050. ID : 63

  1051. Format : UTF-8

  1052. Codec ID : S_TEXT/UTF8

  1053. Codec ID/Info : UTF-8 Plain Text

  1054. Duration : 1 h 33 min

  1055. Bit rate : 96 b/s

  1056. Count of elements : 1360

  1057. Stream size : 66.4 KiB (0%)

  1058. Title : Ukrainian

  1059. Language : Ukrainian

  1060. Default : No

  1061. Forced : No


  1062. Text #33

  1063. ID : 64

  1064. Format : UTF-8

  1065. Codec ID : S_TEXT/UTF8

  1066. Codec ID/Info : UTF-8 Plain Text

  1067. Duration : 1 h 33 min

  1068. Bit rate : 87 b/s

  1069. Count of elements : 1393

  1070. Stream size : 59.9 KiB (0%)

  1071. Title : Vietnamese

  1072. Language : Vietnamese

  1073. Default : No

  1074. Forced : No




复制代码



文件下载


除非特别注明,本文『浓情录音带[国语配音/中文字幕].Mixtape.2021.1080p.NF.WEB-DL.DDP5.1.Atmos.x264-btbt9527.com 17.59GB』来源于互联网机器人自动抓取,非本站原创。 浮游电影网不对本文拥有版权,如有侵犯,请联系邮箱:fuyouu#yandex.com[#换成@]投诉。我们会在15个工作日内删除。 但烦请转载时请标明出处:“本文转载于『浮游电影网』,原文地址:https://www.fuyouu.com/19149.html

评论吧骚年!

发表你的见解   

昵称*

E-mail*(建议输入,以便收到博主回复的提示邮件)

验证码*

您可以使用eMule或eMule Mod(Windows)、aMule(Win、Linux、Mac)等软件下载eD2k链接。。
eMule收藏集(.emulecollection)文件是您选中的所有链接的列表文件。eMule可以直接下载它们。
按住SHIFT键选择可以选中多个选择框。
可用文件名和大小选择器来选择文件。
文件名选择器帮您根据文件名称或后缀来选择文件。不分大小写。
符号使用:
和:空格( )、+
不包含:-
或:|
转义:一对英文引号("");
匹配开头:^
匹配结尾:$
例如:
选中所有名称中包含有“eMule”或“0.49c”字眼,但不包含有“exe”字眼的:emule|0.49c -exe
选中所有名称的开头是“eMule”,结尾是“0.49c”的:^emule 0.49c$
选中所有名称中带有“eMule 0.49c”的(必须是“eMule 0.49c”,中间没有别的字符,不能是“eMule fake 0.49c”),需要转义:"emule 0.49c"
大小选择器帮您根据文件大小选择文件。