当前位置: 首页 >> 国产电影 >> 第一炉香[国语配音/中文字幕].Love.After.Love.2020.WEB-DL.4K.H265.DDP.5.1-btbt9527.com 16.06GB >> 正文

第一炉香[国语配音/中文字幕].Love.After.Love.2020.WEB-DL.4K.H265.DDP.5.1-btbt9527.com 16.06GB

2021年12月05日 11:55:05     电影发布:来源于网络     电影分类:国产电影     评论(0)    

第一炉香[国语配音/中文字幕].Love.After.Love.2020.WEB DL.4K.H265.DDP.5.1 btbt9527.com 16.06GB 爱情片 剧情片 国产电影  第1张

◎译 名 第一炉香 / 沉香屑·第一炉香 / Love After Love

◎年 代 2020

◎产 地 中国大陆

◎类 别 剧情 / 爱情

◎语 言 汉语普通话 / 英语 / 葡萄牙语

◎上映日期 2021-10-22(中国大陆) / 2020-09-08(威尼斯电影节)

◎IMDb链接 https://www.imdb.com/title/tt10415576/

◎豆瓣评分 5.4/10 (44583人评价)

◎豆瓣链接 https://movie.douban.com/subject/27102476/

◎片 长 144分钟

◎导 演 许鞍华 Ann Hui (id:1053570)

◎编 剧 王安忆 Anyi Wang (id:1318426)

张爱玲 Eileen Chang (id:1076575)

◎演 员 马思纯 Sichun Ma (id:1275243)

俞飞鸿 Faye Yu (id:1014618)

彭于晏 Eddie Peng (id:1013782)

张钧甯 Chun-Ning Chang (id:1257882)

范伟 Wei Fan (id:1051526)

梁洛施 Isabella Leong (id:1189924)

张佳宁 Jianing Zhang (id:1315030)

尹昉 Fang Yin (id:1340310)

秦沛 Paul Chun (id:1048476)

白冰 Bing Bai (id:1275547)

宋以朗 (id:1463494)

许子东 Zidong Xu (id:1349289)

夏小雪 (id:1464554)

许鞍华 Ann Hui (id:1053570)

坂本龙一 Ryuichi Sakamoto (id:1148641)

杜可风 Christopher Doyle (id:1045151)

邝志良 Chi-Leung Kwong (id:1289164)

雪美莲 Mary Stephen (id:1328982)

赵海 Hai Zhao (id:1374274)

和田惠美 Emi Wada (id:1033613)

杜笃之 Du-Che Tu (id:1275159)

黄海 Hai Huang (id:1401245)

海瑞 Pino.Rea (id:1445093)

◎标 签 张爱玲 / 许鞍华 / 文艺 / 爱情 / 小说改编 / 剧情 / 王安忆 / 中国大陆

◎简 介

上海女学生葛薇龙(马思纯 饰)求学香港,投靠姑母梁太太(俞飞鸿 饰),被梁太太利用,当作诱饵来吸引男人,葛薇龙渐渐沉迷在纸醉金迷中,后来被花花公子乔琪乔(彭于晏 饰)吸引,为了继续过声色犬马的上流社会生活,不惜出卖自己的灵魂,费尽心机嫁给了乔琪乔,最终沦为姑母梁太太和乔琪乔敛财的工具。

  1. ##### MediaInfo ######

  2. General

  3. Unique ID : 173355002133241096332585083465654032670 (0x826AF57E84C9CA13D353E15C10F3591E)

  4. Complete name : Love After Love 2020 WEB-DL 4K H265 DDP [email protected]

  5. Format : Matroska

  6. Format version : Version 4

  7. File size : 16.1 GiB

  8. Duration : 2 h 23 min

  9. Overall bit rate : 16.0 Mb/s

  10. Encoded date : UTC 2021-12-03 18:21:17

  11. Writing application : mkvmerge v62.0.0 ('Apollo') 64-bit

  12. Writing library : libebml v1.4.2 + libmatroska v1.6.4


  13. Video

  14. ID : 1

  15. Format : HEVC

  16. Format/Info : High Efficiency Video Coding

  17. Format profile : [email protected]@Main

  18. Codec ID : V_MPEGH/ISO/HEVC

  19. Duration : 2 h 23 min

  20. Bit rate : 15.6 Mb/s

  21. Width : 3 840 pixels

  22. Height : 2 160 pixels

  23. Display aspect ratio : 16:9

  24. Frame rate mode : Constant

  25. Frame rate : 24.000 FPS

  26. Color space : YUV

  27. Chroma subsampling : 4:2:0

  28. Bit depth : 8 bits

  29. Bits/(Pixel*Frame) : 0.078

  30. Stream size : 15.6 GiB (97%)

  31. Default : Yes

  32. Forced : No


  33. Audio #1

  34. ID : 2

  35. Format : E-AC-3

  36. Format/Info : Enhanced AC-3

  37. Commercial name : Dolby Digital Plus

  38. Codec ID : A_EAC3

  39. Duration : 2 h 23 min

  40. Bit rate mode : Constant

  41. Bit rate : 256 kb/s

  42. Channel(s) : 6 channels

  43. Channel layout : L R C LFE Ls Rs

  44. Sampling rate : 48.0 kHz

  45. Frame rate : 31.250 FPS (1536 SPF)

  46. Compression mode : Lossy

  47. Stream size : 262 MiB (2%)

  48. Language : Chinese

  49. Service kind : Complete Main

  50. Default : Yes

  51. Forced : No


  52. Audio #2

  53. ID : 3

  54. Format : AAC LC

  55. Format/Info : Advanced Audio Codec Low Complexity

  56. Codec ID : A_AAC-2

  57. Duration : 2 h 23 min

  58. Bit rate : 192 kb/s

  59. Channel(s) : 2 channels

  60. Channel layout : L R

  61. Sampling rate : 44.1 kHz

  62. Frame rate : 43.066 FPS (1024 SPF)

  63. Compression mode : Lossy

  64. Stream size : 194 MiB (1%)

  65. Language : Chinese

  66. Default : No

  67. Forced : No




复制代码




文件下载


除非特别注明,本文『第一炉香[国语配音/中文字幕].Love.After.Love.2020.WEB-DL.4K.H265.DDP.5.1-btbt9527.com 16.06GB』来源于互联网机器人自动抓取,非本站原创。 浮游电影网不对本文拥有版权,如有侵犯,请联系邮箱:fuyouu#yandex.com[#换成@]投诉。我们会在15个工作日内删除。 但烦请转载时请标明出处:“本文转载于『浮游电影网』,原文地址:https://www.fuyouu.com/19147.html

评论吧骚年!

发表你的见解   

昵称*

E-mail*(建议输入,以便收到博主回复的提示邮件)

验证码*

您可以使用eMule或eMule Mod(Windows)、aMule(Win、Linux、Mac)等软件下载eD2k链接。。
eMule收藏集(.emulecollection)文件是您选中的所有链接的列表文件。eMule可以直接下载它们。
按住SHIFT键选择可以选中多个选择框。
可用文件名和大小选择器来选择文件。
文件名选择器帮您根据文件名称或后缀来选择文件。不分大小写。
符号使用:
和:空格( )、+
不包含:-
或:|
转义:一对英文引号("");
匹配开头:^
匹配结尾:$
例如:
选中所有名称中包含有“eMule”或“0.49c”字眼,但不包含有“exe”字眼的:emule|0.49c -exe
选中所有名称的开头是“eMule”,结尾是“0.49c”的:^emule 0.49c$
选中所有名称中带有“eMule 0.49c”的(必须是“eMule 0.49c”,中间没有别的字符,不能是“eMule fake 0.49c”),需要转义:"emule 0.49c"
大小选择器帮您根据文件大小选择文件。