当前位置: 首页 >> 欧美电影 >> 生于贝纳维德斯[中文字幕].All.She.Can.2011.1080p.WEB-DL.AAC2.0.H.264-btbt9527.com 3.38GB >> 正文

生于贝纳维德斯[中文字幕].All.She.Can.2011.1080p.WEB-DL.AAC2.0.H.264-btbt9527.com 3.38GB

2021年12月05日 11:42:05     电影发布:来源于网络     电影分类:欧美电影     评论(0)    

生于贝纳维德斯[中文字幕].All.She.Can.2011.1080p.WEB DL.AAC2.0.H.264 btbt9527.com 3.38GB 剧情片 欧美电影  第1张

◎译 名 生于贝纳维德斯

◎片 名 All She Can

◎年 代 2010

◎产 地 美国

◎类 别 剧情

◎语 言 英语

◎上映日期 2010

◎IMDb链接 https://www.imdb.com/title/tt1629762/

◎豆瓣评分 7.2/10 (63人评价)

◎豆瓣链接 https://movie.douban.com/subject/5153882/

◎演 员 杰瑞米·雷·瓦尔迪兹 Jeremy Ray Valdez (id:1169343)

约瑟夫·朱利安·索里亚 Joseph Julian Soria (id:1332389)

朱莉娅·维拉 Julia Vera (id:1300005)

胡里奥·赛迪罗 Julio Cedillo (id:1332387)

朱利安·沃克斯 Julian Works (id:1396335)

◎标 签 美国电影 / 励志 / 青春 / 成长 / 美国 / 奋斗 / 人生 / 剧情

◎简 介

露絲一家是墨西哥的移民,家境清寒的她與哥哥約定他們要一起進入名校德州大學。哥哥為了夢想,只能冒著生命危險加入徵兵制到阿富汗從軍。露絲也滿心以為只要能獲得德州女子舉重冠軍就能得到德州大學的獎學金。就在決賽關鍵的前三周,求勝心切的她竟然接受藥物注射,意外失去了參賽資格,情緒失控之下,露絲竟成了縱火犯進入少年感化院。生命中種種的意外,讓她逐漸瞭解生命並非別無選擇,憑藉著對舉重充滿熱情,她仍能在每次人生旅程的轉彎中,努力迎向不同的未來…

  1. ##### MediaInfo ######

  2. General

  3. Unique ID : 68038886770756546823500421815112346397 (0x332FD01CEE6C7DD011D1E7F8075CAB1D)

  4. Complete name : [email protected]

  5. Format : Matroska

  6. Format version : Version 4

  7. File size : 3.38 GiB

  8. Duration : 1 h 34 min

  9. Overall bit rate : 5 104 kb/s

  10. Encoded date : UTC 2021-12-03 11:38:18

  11. Writing application : mkvmerge v56.1.0 ('My Friend') 64-bit

  12. Writing library : libebml v1.4.2 + libmatroska v1.6.4


  13. Video

  14. ID : 1

  15. Format : AVC

  16. Format/Info : Advanced Video Codec

  17. Format profile : [email protected]

  18. Format settings : CABAC / 3 Ref Frames

  19. Format settings, CABAC : Yes

  20. Format settings, Reference frames : 3 frames

  21. Format settings, GOP : M=1, N=60

  22. Codec ID : V_MPEG4/ISO/AVC

  23. Duration : 1 h 34 min

  24. Bit rate : 4 973 kb/s

  25. Width : 1 920 pixels

  26. Height : 1 080 pixels

  27. Display aspect ratio : 16:9

  28. Frame rate mode : Constant

  29. Frame rate : 30.000 FPS

  30. Color space : YUV

  31. Chroma subsampling : 4:2:0

  32. Bit depth : 8 bits

  33. Scan type : Progressive

  34. Bits/(Pixel*Frame) : 0.080

  35. Stream size : 3.30 GiB (97%)

  36. Language : English

  37. Default : Yes

  38. Forced : No


  39. Audio

  40. ID : 2

  41. Format : AAC LC

  42. Format/Info : Advanced Audio Codec Low Complexity

  43. Codec ID : A_AAC-2

  44. Duration : 1 h 34 min

  45. Bit rate : 128 kb/s

  46. Channel(s) : 2 channels

  47. Channel layout : L R

  48. Sampling rate : 44.1 kHz

  49. Frame rate : 43.066 FPS (1024 SPF)

  50. Compression mode : Lossy

  51. Stream size : 86.9 MiB (3%)

  52. Title : English

  53. Language : English

  54. Default : Yes

  55. Forced : No


  56. Text #1

  57. ID : 3

  58. Format : UTF-8

  59. Codec ID : S_TEXT/UTF8

  60. Codec ID/Info : UTF-8 Plain Text

  61. Duration : 1 h 28 min

  62. Bit rate : 44 b/s

  63. Count of elements : 825

  64. Stream size : 28.6 KiB (0%)

  65. Title : Chinese Simplified

  66. Language : Chinese

  67. Default : Yes

  68. Forced : No


  69. Text #2

  70. ID : 4

  71. Format : UTF-8

  72. Codec ID : S_TEXT/UTF8

  73. Codec ID/Info : UTF-8 Plain Text

  74. Duration : 1 h 28 min

  75. Bit rate : 44 b/s

  76. Count of elements : 825

  77. Stream size : 28.6 KiB (0%)

  78. Title : Chinese Traditional

  79. Language : Chinese

  80. Default : No

  81. Forced : No




复制代码




文件下载


除非特别注明,本文『生于贝纳维德斯[中文字幕].All.She.Can.2011.1080p.WEB-DL.AAC2.0.H.264-btbt9527.com 3.38GB』来源于互联网机器人自动抓取,非本站原创。 浮游电影网不对本文拥有版权,如有侵犯,请联系邮箱:fuyouu#yandex.com[#换成@]投诉。我们会在15个工作日内删除。 但烦请转载时请标明出处:“本文转载于『浮游电影网』,原文地址:https://www.fuyouu.com/19138.html

评论吧骚年!

发表你的见解   

昵称*

E-mail*(建议输入,以便收到博主回复的提示邮件)

验证码*

您可以使用eMule或eMule Mod(Windows)、aMule(Win、Linux、Mac)等软件下载eD2k链接。。
eMule收藏集(.emulecollection)文件是您选中的所有链接的列表文件。eMule可以直接下载它们。
按住SHIFT键选择可以选中多个选择框。
可用文件名和大小选择器来选择文件。
文件名选择器帮您根据文件名称或后缀来选择文件。不分大小写。
符号使用:
和:空格( )、+
不包含:-
或:|
转义:一对英文引号("");
匹配开头:^
匹配结尾:$
例如:
选中所有名称中包含有“eMule”或“0.49c”字眼,但不包含有“exe”字眼的:emule|0.49c -exe
选中所有名称的开头是“eMule”,结尾是“0.49c”的:^emule 0.49c$
选中所有名称中带有“eMule 0.49c”的(必须是“eMule 0.49c”,中间没有别的字符,不能是“eMule fake 0.49c”),需要转义:"emule 0.49c"
大小选择器帮您根据文件大小选择文件。