当前位置: 首页 >> 欧美电影 >> 犬之力[中文字幕].The.Power.of.the.Dog.2021.1080p.NF.WEB-DL.DDP5.1.Atmos.x264-btbt9527.com 13.31GB >> 正文

犬之力[中文字幕].The.Power.of.the.Dog.2021.1080p.NF.WEB-DL.DDP5.1.Atmos.x264-btbt9527.com 13.31GB

2021年12月03日 08:54:36     电影发布:来源于网络     电影分类:欧美电影     评论(0)    

犬之力[中文字幕].The.Power.of.the.Dog.2021.1080p.NF.WEB DL.DDP5.1.Atmos.x264 btbt9527.com 13.31GB 西部 同性 剧情片 欧美电影  第1张

◎译 名 犬之力 / 犬山记(港 / 台)

◎片 名 The Power of the Dog

◎年 代 2021

◎产 地 英国 / 澳大利亚 / 美国 / 加拿大 / 新西兰

◎类 别 剧情 / 同性 / 西部

◎语 言 英语

◎上映日期 2021-09-02(威尼斯电影节) / 2021-11-17(美国) / 2021-12-01(美国网络)

◎IMDb链接 https://www.imdb.com/title/tt10293406/

◎豆瓣评分 7.5/10 (9403人评价)

◎豆瓣链接 https://movie.douban.com/subject/33437152/

◎片 长 127分钟

◎导 演 简·坎皮恩 Jane Campion (id:1045008)

◎编 剧 简·坎皮恩 Jane Campion (id:1045008)

◎演 员 本尼迪克特·康伯巴奇 Benedict Cumberbatch (id:1009405)

克斯汀·邓斯特 Kirsten Dunst (id:1054429)

杰西·普莱蒙 Jesse Plemons (id:1129549)

柯蒂·斯密特-麦菲 Kodi Smit-McPhee (id:1248592)

托马辛·麦肯齐 Thomasin McKenzie (id:1394824)

基思·卡拉丹 Keith Carradine (id:1025211)

弗兰西丝·康罗伊 Frances Conroy (id:1040622)

吉娜维夫·莱蒙 Geneviève Lemon (id:1289782)

肖恩·基南 Sean Keenan (id:1014240)

科恩·霍洛维 Cohen Holloway (id:1327519)

爱丽丝·恩格勒特 Alice Englert (id:1322351)

Yvette Reid Yvette Reid (id:1242448)

斯特芬·劳瓦特 Stephen Lovatt (id:1018681)

瓦季姆·列多戈罗夫 Vadim Ledogorov (id:1440045)

朱莉·福塞斯 Julie Forsyth (id:1381385)

彼得·卡罗尔 Peter Carroll (id:1280161)

艾莉森·布鲁斯 Alison Bruce (id:1279477)

大卫·T·林 David T·Lim (id:1369794)

亚当·比奇 Adam Beach (id:1041158)

简·坎皮恩 Jane Campion (id:1045008)

◎标 签 本尼迪克特·康伯巴奇 / 西部 / 剧情 / 2021 / 英国 / 美国 / 简·坎皮恩 / 爱情

◎简 介

富有魅力的牧场主菲尔·伯班克(本尼迪克特·康伯巴奇 饰)让他周围的人又敬又怕。当他的兄弟将新婚妻子以及她的儿子带回家时,菲尔百般折磨他们,直到有一天,他发现自己对爱也存有一丝渴望。

◎获奖情况 (共3项)

第78届威尼斯电影节 (2021)

主竞赛单元 金狮奖 (提名)

└──简·坎皮恩 (id:1045008)

银狮奖 最佳导演

└──简·坎皮恩 (id:1045008)

第69届圣塞巴斯蒂安国际电影节 (2021)

Sebastiane Award

└──简·坎皮恩 (id:1045008)

  1. ##### MediaInfo ######

  2. General

  3. Unique ID : 206728612037333508406942932278552259630 (0x9B867B806DFEBDF22D0D4EB389736C2E)

  4. Complete name : Th[email protected]MKVChina.mkv

  5. Format : Matroska

  6. Format version : Version 4

  7. File size : 13.3 GiB

  8. Duration : 2 h 8 min

  9. Overall bit rate mode : Variable

  10. Overall bit rate : 14.8 Mb/s

  11. Encoded date : UTC 2021-12-01 08:30:24

  12. Writing application : mkvmerge v62.0.0 ('Apollo') 64-bit

  13. Writing library : libebml v1.4.2 + libmatroska v1.6.4


  14. Video

  15. ID : 1

  16. Format : AVC

  17. Format/Info : Advanced Video Codec

  18. Format profile : [email protected]

  19. Format settings : CABAC / 3 Ref Frames

  20. Format settings, CABAC : Yes

  21. Format settings, Reference frames : 3 frames

  22. Codec ID : V_MPEG4/ISO/AVC

  23. Duration : 2 h 8 min

  24. Bit rate mode : Variable

  25. Bit rate : 5 800 kb/s

  26. Maximum bit rate : 8 700 kb/s

  27. Width : 1 920 pixels

  28. Height : 1 080 pixels

  29. Display aspect ratio : 16:9

  30. Frame rate mode : Constant

  31. Frame rate : 24.000 FPS

  32. Color space : YUV

  33. Chroma subsampling : 4:2:0

  34. Bit depth : 8 bits

  35. Scan type : Progressive

  36. Bits/(Pixel*Frame) : 0.117

  37. Stream size : 5.13 GiB (39%)

  38. Writing library : x264 core 148 r2727 7d026e8

  39. Encoding settings : cabac=1 / ref=3 / deblock=1:0:0 / analyse=0x1:0x111 / me=umh / subme=10 / psy=1 / psy_rd=1.00:0.00 / mixed_ref=1 / me_range=24 / chroma_me=1 / trellis=2 / 8x8dct=0 / cqm=0 / deadzone=21,11 / fast_pskip=1 / chroma_qp_offset=-2 / threads=8 / lookahead_threads=1 / sliced_threads=0 / nr=0 / decimate=1 / interlaced=0 / NTMzNTQ= / bluray_compat=0 / stitchable=1 / constrained_intra=0 / bframes=2 / b_pyramid=0 / b_adapt=2 / b_bias=0 / direct=3 / weightb=1 / open_gop=0 / weightp=2 / keyint=250 / keyint_min=24 / scenecut=0 / intra_refresh=0 / rc_lookahead=48 / rc=2pass / mbtree=1 / bitrate=5800 / ratetol=1.0 / qcomp=0.50 / qpmin=6 / qpmax=51 / qpstep=4 / cplxblur=20.0 / qblur=0.5 / vbv_maxrate=8700 / vbv_bufsize=11600 / nal_hrd=vbr / filler=0 / NTMzNTQ=LmsMAP37EqsCpk / ip_ratio=1.40 / aq=1:1.00

  40. Default : Yes

  41. Forced : No


  42. Audio #1

  43. ID : 2

  44. Format : E-AC-3 JOC

  45. Format/Info : Enhanced AC-3 with Joint Object Coding

  46. Commercial name : Dolby Digital Plus with Dolby Atmos

  47. Codec ID : A_EAC3

  48. Duration : 2 h 8 min

  49. Bit rate mode : Constant

  50. Bit rate : 768 kb/s

  51. Channel(s) : 6 channels

  52. Channel layout : L R C LFE Ls Rs

  53. Sampling rate : 48.0 kHz

  54. Frame rate : 31.250 FPS (1536 SPF)

  55. Compression mode : Lossy

  56. Stream size : 707 MiB (5%)

  57. Title : English

  58. Language : English

  59. Service kind : Complete Main

  60. Default : Yes

  61. Forced : No

  62. Complexity index : 16

  63. Number of dynamic objects : 15

  64. Bed channel count : 1 channel

  65. Bed channel configuration : LFE


  66. Audio #2

  67. ID : 3

  68. Format : E-AC-3

  69. Format/Info : Enhanced AC-3

  70. Commercial name : Dolby Digital Plus

  71. Codec ID : A_EAC3

  72. Duration : 2 h 8 min

  73. Bit rate mode : Constant

  74. Bit rate : 640 kb/s

  75. Channel(s) : 6 channels

  76. Channel layout : L R C LFE Ls Rs

  77. Sampling rate : 48.0 kHz

  78. Frame rate : 31.250 FPS (1536 SPF)

  79. Compression mode : Lossy

  80. Stream size : 589 MiB (4%)

  81. Title : Czech

  82. Language : Czech

  83. Service kind : Complete Main

  84. Default : No

  85. Forced : No


  86. Audio #3

  87. ID : 4

  88. Format : E-AC-3

  89. Format/Info : Enhanced AC-3

  90. Commercial name : Dolby Digital Plus

  91. Codec ID : A_EAC3

  92. Duration : 2 h 8 min

  93. Bit rate mode : Constant

  94. Bit rate : 640 kb/s

  95. Channel(s) : 6 channels

  96. Channel layout : L R C LFE Ls Rs

  97. Sampling rate : 48.0 kHz

  98. Frame rate : 31.250 FPS (1536 SPF)

  99. Compression mode : Lossy

  100. Stream size : 589 MiB (4%)

  101. Title : French

  102. Language : French

  103. Service kind : Complete Main

  104. Default : No

  105. Forced : No


  106. Audio #4

  107. ID : 5

  108. Format : E-AC-3

  109. Format/Info : Enhanced AC-3

  110. Commercial name : Dolby Digital Plus

  111. Codec ID : A_EAC3

  112. Duration : 2 h 8 min

  113. Bit rate mode : Constant

  114. Bit rate : 640 kb/s

  115. Channel(s) : 6 channels

  116. Channel layout : L R C LFE Ls Rs

  117. Sampling rate : 48.0 kHz

  118. Frame rate : 31.250 FPS (1536 SPF)

  119. Compression mode : Lossy

  120. Stream size : 589 MiB (4%)

  121. Title : German

  122. Language : German

  123. Service kind : Complete Main

  124. Default : No

  125. Forced : No


  126. Audio #5

  127. ID : 6

  128. Format : E-AC-3

  129. Format/Info : Enhanced AC-3

  130. Commercial name : Dolby Digital Plus

  131. Codec ID : A_EAC3

  132. Duration : 2 h 8 min

  133. Bit rate mode : Constant

  134. Bit rate : 640 kb/s

  135. Channel(s) : 6 channels

  136. Channel layout : L R C LFE Ls Rs

  137. Sampling rate : 48.0 kHz

  138. Frame rate : 31.250 FPS (1536 SPF)

  139. Compression mode : Lossy

  140. Stream size : 589 MiB (4%)

  141. Title : Hungarian

  142. Language : Hungarian

  143. Service kind : Complete Main

  144. Default : No

  145. Forced : No


  146. Audio #6

  147. ID : 7

  148. Format : E-AC-3

  149. Format/Info : Enhanced AC-3

  150. Commercial name : Dolby Digital Plus

  151. Codec ID : A_EAC3

  152. Duration : 2 h 8 min

  153. Bit rate mode : Constant

  154. Bit rate : 640 kb/s

  155. Channel(s) : 6 channels

  156. Channel layout : L R C LFE Ls Rs

  157. Sampling rate : 48.0 kHz

  158. Frame rate : 31.250 FPS (1536 SPF)

  159. Compression mode : Lossy

  160. Stream size : 589 MiB (4%)

  161. Title : Italian

  162. Language : Italian

  163. Service kind : Complete Main

  164. Default : No

  165. Forced : No


  166. Audio #7

  167. ID : 8

  168. Format : E-AC-3

  169. Format/Info : Enhanced AC-3

  170. Commercial name : Dolby Digital Plus

  171. Codec ID : A_EAC3

  172. Duration : 2 h 8 min

  173. Bit rate mode : Constant

  174. Bit rate : 640 kb/s

  175. Channel(s) : 6 channels

  176. Channel layout : L R C LFE Ls Rs

  177. Sampling rate : 48.0 kHz

  178. Frame rate : 31.250 FPS (1536 SPF)

  179. Compression mode : Lossy

  180. Stream size : 589 MiB (4%)

  181. Title : Japanese

  182. Language : Japanese

  183. Service kind : Complete Main

  184. Default : No

  185. Forced : No


  186. Audio #8

  187. ID : 9

  188. Format : E-AC-3

  189. Format/Info : Enhanced AC-3

  190. Commercial name : Dolby Digital Plus

  191. Codec ID : A_EAC3

  192. Duration : 2 h 8 min

  193. Bit rate mode : Constant

  194. Bit rate : 640 kb/s

  195. Channel(s) : 6 channels

  196. Channel layout : L R C LFE Ls Rs

  197. Sampling rate : 48.0 kHz

  198. Frame rate : 31.250 FPS (1536 SPF)

  199. Compression mode : Lossy

  200. Stream size : 589 MiB (4%)

  201. Title : Polish

  202. Language : Polish

  203. Service kind : Complete Main

  204. Default : No

  205. Forced : No


  206. Audio #9

  207. ID : 10

  208. Format : E-AC-3

  209. Format/Info : Enhanced AC-3

  210. Commercial name : Dolby Digital Plus

  211. Codec ID : A_EAC3

  212. Duration : 2 h 8 min

  213. Bit rate mode : Constant

  214. Bit rate : 640 kb/s

  215. Channel(s) : 6 channels

  216. Channel layout : L R C LFE Ls Rs

  217. Sampling rate : 48.0 kHz

  218. Frame rate : 31.250 FPS (1536 SPF)

  219. Compression mode : Lossy

  220. Stream size : 589 MiB (4%)

  221. Title : Brazilian Portuguese

  222. Language : Portuguese

  223. Service kind : Complete Main

  224. Default : No

  225. Forced : No


  226. Audio #10

  227. ID : 11

  228. Format : E-AC-3

  229. Format/Info : Enhanced AC-3

  230. Commercial name : Dolby Digital Plus

  231. Codec ID : A_EAC3

  232. Duration : 2 h 8 min

  233. Bit rate mode : Constant

  234. Bit rate : 640 kb/s

  235. Channel(s) : 6 channels

  236. Channel layout : L R C LFE Ls Rs

  237. Sampling rate : 48.0 kHz

  238. Frame rate : 31.250 FPS (1536 SPF)

  239. Compression mode : Lossy

  240. Stream size : 589 MiB (4%)

  241. Title : Russian

  242. Language : Russian

  243. Service kind : Complete Main

  244. Default : No

  245. Forced : No


  246. Audio #11

  247. ID : 12

  248. Format : E-AC-3

  249. Format/Info : Enhanced AC-3

  250. Commercial name : Dolby Digital Plus

  251. Codec ID : A_EAC3

  252. Duration : 2 h 8 min

  253. Bit rate mode : Constant

  254. Bit rate : 640 kb/s

  255. Channel(s) : 6 channels

  256. Channel layout : L R C LFE Ls Rs

  257. Sampling rate : 48.0 kHz

  258. Frame rate : 31.250 FPS (1536 SPF)

  259. Compression mode : Lossy

  260. Stream size : 589 MiB (4%)

  261. Title : Spanish

  262. Language : Spanish

  263. Service kind : Complete Main

  264. Default : No

  265. Forced : No


  266. Audio #12

  267. ID : 13

  268. Format : E-AC-3

  269. Format/Info : Enhanced AC-3

  270. Commercial name : Dolby Digital Plus

  271. Codec ID : A_EAC3

  272. Duration : 2 h 8 min

  273. Bit rate mode : Constant

  274. Bit rate : 640 kb/s

  275. Channel(s) : 6 channels

  276. Channel layout : L R C LFE Ls Rs

  277. Sampling rate : 48.0 kHz

  278. Frame rate : 31.250 FPS (1536 SPF)

  279. Compression mode : Lossy

  280. Stream size : 589 MiB (4%)

  281. Title : European Spanish

  282. Language : Spanish

  283. Service kind : Complete Main

  284. Default : No

  285. Forced : No


  286. Audio #13

  287. ID : 14

  288. Format : E-AC-3

  289. Format/Info : Enhanced AC-3

  290. Commercial name : Dolby Digital Plus

  291. Codec ID : A_EAC3

  292. Duration : 2 h 8 min

  293. Bit rate mode : Constant

  294. Bit rate : 640 kb/s

  295. Channel(s) : 6 channels

  296. Channel layout : L R C LFE Ls Rs

  297. Sampling rate : 48.0 kHz

  298. Frame rate : 31.250 FPS (1536 SPF)

  299. Compression mode : Lossy

  300. Stream size : 589 MiB (4%)

  301. Title : Thai

  302. Language : Thai

  303. Service kind : Complete Main

  304. Default : No

  305. Forced : No


  306. Audio #14

  307. ID : 15

  308. Format : E-AC-3

  309. Format/Info : Enhanced AC-3

  310. Commercial name : Dolby Digital Plus

  311. Codec ID : A_EAC3

  312. Duration : 2 h 8 min

  313. Bit rate mode : Constant

  314. Bit rate : 640 kb/s

  315. Channel(s) : 6 channels

  316. Channel layout : L R C LFE Ls Rs

  317. Sampling rate : 48.0 kHz

  318. Frame rate : 31.250 FPS (1536 SPF)

  319. Compression mode : Lossy

  320. Stream size : 589 MiB (4%)

  321. Title : Turkish

  322. Language : Turkish

  323. Service kind : Complete Main

  324. Default : No

  325. Forced : No


  326. Text #1

  327. ID : 16

  328. Format : UTF-8

  329. Codec ID : S_TEXT/UTF8

  330. Codec ID/Info : UTF-8 Plain Text

  331. Duration : 2 h 4 min

  332. Bit rate : 49 b/s

  333. Count of elements : 1246

  334. Stream size : 45.6 KiB (0%)

  335. Title : English

  336. Language : English

  337. Default : Yes

  338. Forced : No


  339. Text #2

  340. ID : 17

  341. Format : UTF-8

  342. Codec ID : S_TEXT/UTF8

  343. Codec ID/Info : UTF-8 Plain Text

  344. Duration : 2 h 5 min

  345. Bit rate : 46 b/s

  346. Count of elements : 902

  347. Stream size : 42.5 KiB (0%)

  348. Title : Arabic

  349. Language : Arabic

  350. Default : No

  351. Forced : No


  352. Text #3

  353. ID : 18

  354. Format : UTF-8

  355. Codec ID : S_TEXT/UTF8

  356. Codec ID/Info : UTF-8 Plain Text

  357. Duration : 2 h 5 min

  358. Bit rate : 26 b/s

  359. Count of elements : 881

  360. Stream size : 24.7 KiB (0%)

  361. Title : Chinese Simplified

  362. Language : Chinese

  363. Default : No

  364. Forced : No


  365. Text #4

  366. ID : 19

  367. Format : UTF-8

  368. Codec ID : S_TEXT/UTF8

  369. Codec ID/Info : UTF-8 Plain Text

  370. Duration : 2 h 5 min

  371. Bit rate : 26 b/s

  372. Count of elements : 911

  373. Stream size : 24.6 KiB (0%)

  374. Title : Chinese Traditional

  375. Language : Chinese

  376. Default : No

  377. Forced : No


  378. Text #5

  379. ID : 20

  380. Format : UTF-8

  381. Codec ID : S_TEXT/UTF8

  382. Codec ID/Info : UTF-8 Plain Text

  383. Duration : 2 h 5 min

  384. Bit rate : 23 b/s

  385. Count of elements : 882

  386. Stream size : 21.4 KiB (0%)

  387. Title : Croatian

  388. Language : Croatian

  389. Default : No

  390. Forced : No


  391. Text #6

  392. ID : 21

  393. Format : UTF-8

  394. Codec ID : S_TEXT/UTF8

  395. Codec ID/Info : UTF-8 Plain Text

  396. Duration : 2 h 5 min

  397. Bit rate : 23 b/s

  398. Count of elements : 869

  399. Stream size : 21.7 KiB (0%)

  400. Title : Czech

  401. Language : Czech

  402. Default : No

  403. Forced : No


  404. Text #7

  405. ID : 22

  406. Format : UTF-8

  407. Codec ID : S_TEXT/UTF8

  408. Codec ID/Info : UTF-8 Plain Text

  409. Duration : 2 h 6 min

  410. Bit rate : 23 b/s

  411. Count of elements : 841

  412. Stream size : 22.0 KiB (0%)

  413. Title : Danish

  414. Language : Danish

  415. Default : No

  416. Forced : No


  417. Text #8

  418. ID : 23

  419. Format : UTF-8

  420. Codec ID : S_TEXT/UTF8

  421. Codec ID/Info : UTF-8 Plain Text

  422. Duration : 2 h 5 min

  423. Bit rate : 23 b/s

  424. Count of elements : 780

  425. Stream size : 21.6 KiB (0%)

  426. Title : Dutch

  427. Language : Dutch

  428. Default : No

  429. Forced : No


  430. Text #9

  431. ID : 24

  432. Format : UTF-8

  433. Codec ID : S_TEXT/UTF8

  434. Codec ID/Info : UTF-8 Plain Text

  435. Duration : 2 h 5 min

  436. Bit rate : 23 b/s

  437. Count of elements : 851

  438. Stream size : 21.2 KiB (0%)

  439. Title : Finnish

  440. Language : Finnish

  441. Default : No

  442. Forced : No


  443. Text #10

  444. ID : 25

  445. Format : UTF-8

  446. Codec ID : S_TEXT/UTF8

  447. Codec ID/Info : UTF-8 Plain Text

  448. Duration : 2 h 5 min

  449. Bit rate : 26 b/s

  450. Count of elements : 856

  451. Stream size : 24.1 KiB (0%)

  452. Title : French

  453. Language : French

  454. Default : No

  455. Forced : No


  456. Text #11

  457. ID : 26

  458. Format : UTF-8

  459. Codec ID : S_TEXT/UTF8

  460. Codec ID/Info : UTF-8 Plain Text

  461. Duration : 2 h 5 min

  462. Bit rate : 23 b/s

  463. Count of elements : 869

  464. Stream size : 22.0 KiB (0%)

  465. Title : German

  466. Language : German

  467. Default : No

  468. Forced : No


  469. Text #12

  470. ID : 27

  471. Format : UTF-8

  472. Codec ID : S_TEXT/UTF8

  473. Codec ID/Info : UTF-8 Plain Text

  474. Duration : 2 h 6 min

  475. Bit rate : 42 b/s

  476. Count of elements : 875

  477. Stream size : 39.0 KiB (0%)

  478. Title : Greek

  479. Language : Greek

  480. Default : No

  481. Forced : No


  482. Text #13

  483. ID : 28

  484. Format : UTF-8

  485. Codec ID : S_TEXT/UTF8

  486. Codec ID/Info : UTF-8 Plain Text

  487. Duration : 2 h 5 min

  488. Bit rate : 41 b/s

  489. Count of elements : 884

  490. Stream size : 37.9 KiB (0%)

  491. Title : Hebrew

  492. Language : Hebrew

  493. Default : No

  494. Forced : No


  495. Text #14

  496. ID : 29

  497. Format : UTF-8

  498. Codec ID : S_TEXT/UTF8

  499. Codec ID/Info : UTF-8 Plain Text

  500. Duration : 2 h 5 min

  501. Bit rate : 25 b/s

  502. Count of elements : 866

  503. Stream size : 23.8 KiB (0%)

  504. Title : Hungarian

  505. Language : Hungarian

  506. Default : No

  507. Forced : No


  508. Text #15

  509. ID : 30

  510. Format : UTF-8

  511. Codec ID : S_TEXT/UTF8

  512. Codec ID/Info : UTF-8 Plain Text

  513. Duration : 2 h 5 min

  514. Bit rate : 24 b/s

  515. Count of elements : 875

  516. Stream size : 23.0 KiB (0%)

  517. Title : Indonesian

  518. Language : Indonesian

  519. Default : No

  520. Forced : No


  521. Text #16

  522. ID : 31

  523. Format : UTF-8

  524. Codec ID : S_TEXT/UTF8

  525. Codec ID/Info : UTF-8 Plain Text

  526. Duration : 2 h 5 min

  527. Bit rate : 22 b/s

  528. Count of elements : 865

  529. Stream size : 21.0 KiB (0%)

  530. Title : Italian

  531. Language : Italian

  532. Default : No

  533. Forced : No


  534. Text #17

  535. ID : 32

  536. Format : UTF-8

  537. Codec ID : S_TEXT/UTF8

  538. Codec ID/Info : UTF-8 Plain Text

  539. Duration : 2 h 5 min

  540. Bit rate : 26 b/s

  541. Count of elements : 911

  542. Stream size : 24.1 KiB (0%)

  543. Title : Japanese

  544. Language : Japanese

  545. Default : No

  546. Forced : No


  547. Text #18

  548. ID : 33

  549. Format : UTF-8

  550. Codec ID : S_TEXT/UTF8

  551. Codec ID/Info : UTF-8 Plain Text

  552. Duration : 2 h 5 min

  553. Bit rate : 29 b/s

  554. Count of elements : 884

  555. Stream size : 27.0 KiB (0%)

  556. Title : Korean

  557. Language : Korean

  558. Default : No

  559. Forced : No


  560. Text #19

  561. ID : 34

  562. Format : UTF-8

  563. Codec ID : S_TEXT/UTF8

  564. Codec ID/Info : UTF-8 Plain Text

  565. Duration : 2 h 5 min

  566. Bit rate : 24 b/s

  567. Count of elements : 879

  568. Stream size : 22.2 KiB (0%)

  569. Title : Malay

  570. Language : Malay

  571. Default : No

  572. Forced : No


  573. Text #20

  574. ID : 35

  575. Format : UTF-8

  576. Codec ID : S_TEXT/UTF8

  577. Codec ID/Info : UTF-8 Plain Text

  578. Duration : 2 h 5 min

  579. Bit rate : 22 b/s

  580. Count of elements : 837

  581. Stream size : 20.9 KiB (0%)

  582. Title : Norwegian Bokmal

  583. Language : Norwegian Bokmal

  584. Default : No

  585. Forced : No


  586. Text #21

  587. ID : 36

  588. Format : UTF-8

  589. Codec ID : S_TEXT/UTF8

  590. Codec ID/Info : UTF-8 Plain Text

  591. Duration : 2 h 5 min

  592. Bit rate : 24 b/s

  593. Count of elements : 871

  594. Stream size : 22.2 KiB (0%)

  595. Title : Polish

  596. Language : Polish

  597. Default : No

  598. Forced : No


  599. Text #22

  600. ID : 37

  601. Format : UTF-8

  602. Codec ID : S_TEXT/UTF8

  603. Codec ID/Info : UTF-8 Plain Text

  604. Duration : 2 h 5 min

  605. Bit rate : 25 b/s

  606. Count of elements : 871

  607. Stream size : 23.7 KiB (0%)

  608. Title : Portuguese

  609. Language : Portuguese

  610. Default : No

  611. Forced : No


  612. Text #23

  613. ID : 38

  614. Format : UTF-8

  615. Codec ID : S_TEXT/UTF8

  616. Codec ID/Info : UTF-8 Plain Text

  617. Duration : 2 h 5 min

  618. Bit rate : 24 b/s

  619. Count of elements : 865

  620. Stream size : 22.9 KiB (0%)

  621. Title : Brazilian Portuguese

  622. Language : Portuguese

  623. Default : No

  624. Forced : No


  625. Text #24

  626. ID : 39

  627. Format : UTF-8

  628. Codec ID : S_TEXT/UTF8

  629. Codec ID/Info : UTF-8 Plain Text

  630. Duration : 2 h 5 min

  631. Bit rate : 28 b/s

  632. Count of elements : 839

  633. Stream size : 26.1 KiB (0%)

  634. Title : Romanian

  635. Language : Romanian

  636. Default : No

  637. Forced : No


  638. Text #25

  639. ID : 40

  640. Format : UTF-8

  641. Codec ID : S_TEXT/UTF8

  642. Codec ID/Info : UTF-8 Plain Text

  643. Duration : 2 h 5 min

  644. Bit rate : 42 b/s

  645. Count of elements : 871

  646. Stream size : 38.8 KiB (0%)

  647. Title : Russian

  648. Language : Russian

  649. Default : No

  650. Forced : No


  651. Text #26

  652. ID : 41

  653. Format : UTF-8

  654. Codec ID : S_TEXT/UTF8

  655. Codec ID/Info : UTF-8 Plain Text

  656. Duration : 2 h 5 min

  657. Bit rate : 25 b/s

  658. Count of elements : 871

  659. Stream size : 23.8 KiB (0%)

  660. Title : Spanish

  661. Language : Spanish

  662. Default : No

  663. Forced : No


  664. Text #27

  665. ID : 42

  666. Format : UTF-8

  667. Codec ID : S_TEXT/UTF8

  668. Codec ID/Info : UTF-8 Plain Text

  669. Duration : 2 h 5 min

  670. Bit rate : 24 b/s

  671. Count of elements : 886

  672. Stream size : 22.8 KiB (0%)

  673. Title : European Spanish

  674. Language : Spanish

  675. Default : No

  676. Forced : No


  677. Text #28

  678. ID : 43

  679. Format : UTF-8

  680. Codec ID : S_TEXT/UTF8

  681. Codec ID/Info : UTF-8 Plain Text

  682. Duration : 2 h 5 min

  683. Bit rate : 24 b/s

  684. Count of elements : 834

  685. Stream size : 22.4 KiB (0%)

  686. Title : Swedish

  687. Language : Swedish

  688. Default : No

  689. Forced : No


  690. Text #29

  691. ID : 44

  692. Format : UTF-8

  693. Codec ID : S_TEXT/UTF8

  694. Codec ID/Info : UTF-8 Plain Text

  695. Duration : 2 h 5 min

  696. Bit rate : 65 b/s

  697. Count of elements : 881

  698. Stream size : 60.3 KiB (0%)

  699. Title : Thai

  700. Language : Thai

  701. Default : No

  702. Forced : No


  703. Text #30

  704. ID : 45

  705. Format : UTF-8

  706. Codec ID : S_TEXT/UTF8

  707. Codec ID/Info : UTF-8 Plain Text

  708. Duration : 2 h 5 min

  709. Bit rate : 25 b/s

  710. Count of elements : 845

  711. Stream size : 23.4 KiB (0%)

  712. Title : Turkish

  713. Language : Turkish

  714. Default : No

  715. Forced : No


  716. Text #31

  717. ID : 46

  718. Format : UTF-8

  719. Codec ID : S_TEXT/UTF8

  720. Codec ID/Info : UTF-8 Plain Text

  721. Duration : 2 h 5 min

  722. Bit rate : 41 b/s

  723. Count of elements : 857

  724. Stream size : 38.0 KiB (0%)

  725. Title : Ukrainian

  726. Language : Ukrainian

  727. Default : No

  728. Forced : No


  729. Text #32

  730. ID : 47

  731. Format : UTF-8

  732. Codec ID : S_TEXT/UTF8

  733. Codec ID/Info : UTF-8 Plain Text

  734. Duration : 2 h 5 min

  735. Bit rate : 37 b/s

  736. Count of elements : 901

  737. Stream size : 34.1 KiB (0%)

  738. Title : Vietnamese

  739. Language : Vietnamese

  740. Default : No

  741. Forced : No




复制代码



文件下载


除非特别注明,本文『犬之力[中文字幕].The.Power.of.the.Dog.2021.1080p.NF.WEB-DL.DDP5.1.Atmos.x264-btbt9527.com 13.31GB』来源于互联网机器人自动抓取,非本站原创。 浮游电影网不对本文拥有版权,如有侵犯,请联系邮箱:fuyouu#yandex.com[#换成@]投诉。我们会在15个工作日内删除。 但烦请转载时请标明出处:“本文转载于『浮游电影网』,原文地址:https://www.fuyouu.com/19130.html

评论吧骚年!

发表你的见解   

昵称*

E-mail*(建议输入,以便收到博主回复的提示邮件)

验证码*

您可以使用eMule或eMule Mod(Windows)、aMule(Win、Linux、Mac)等软件下载eD2k链接。。
eMule收藏集(.emulecollection)文件是您选中的所有链接的列表文件。eMule可以直接下载它们。
按住SHIFT键选择可以选中多个选择框。
可用文件名和大小选择器来选择文件。
文件名选择器帮您根据文件名称或后缀来选择文件。不分大小写。
符号使用:
和:空格( )、+
不包含:-
或:|
转义:一对英文引号("");
匹配开头:^
匹配结尾:$
例如:
选中所有名称中包含有“eMule”或“0.49c”字眼,但不包含有“exe”字眼的:emule|0.49c -exe
选中所有名称的开头是“eMule”,结尾是“0.49c”的:^emule 0.49c$
选中所有名称中带有“eMule 0.49c”的(必须是“eMule 0.49c”,中间没有别的字符,不能是“eMule fake 0.49c”),需要转义:"emule 0.49c"
大小选择器帮您根据文件大小选择文件。