当前位置: 首页 >> 欧美电影 >> 经纪人[中文字幕].Body.Brokers.2021.1080p.BluRay.DD5.1.x264-btbt9527.com 10.43GB >> 正文

经纪人[中文字幕].Body.Brokers.2021.1080p.BluRay.DD5.1.x264-btbt9527.com 10.43GB

2021年12月03日 08:49:33     电影发布:来源于网络     电影分类:欧美电影     评论(0)    

经纪人[中文字幕].Body.Brokers.2021.1080p.BluRay.DD5.1.x264 btbt9527.com 10.43GB 犯罪片 剧情片 欧美电影  第1张

◎译 名 经纪人

◎片 名 Body Brokers

◎年 代 2021

◎产 地 美国

◎类 别 剧情 / 犯罪

◎语 言 英语

◎上映日期 2021-02-19(美国)

◎IMDb链接 https://www.imdb.com/title/tt9585676/

◎豆瓣评分 6.5/10 (626人评价)

◎豆瓣链接 https://movie.douban.com/subject/34931799/

◎片 长 111分钟

◎演 员 托马斯·戴克 Thomas Dekker (id:1013771)

杰西卡·罗德 Jessica Rothe (id:1325899)

弗兰克·格里罗 Frank Grillo (id:1100321)

迈克尔·肯尼斯·威廉姆斯 Michael Kenneth Williams (id:1036428)

梅丽莎·里奥 Melissa Leo (id:1049558)

杰克·基默 Jack Kilmer (id:1339107)

彼得·格林纳 Peter Greene (id:1027274)

爱丽丝·恩格勒特 Alice Englert (id:1322351)

欧文·坎贝尔 Owen Campbell (id:1313218)

比利·布莱尔 Billy Blair (id:1274695)

蕾妮·威利特 Renée Willett (id:1379234)

珊·奎汀 Sam Quartin (id:1375248)

Ben Hall Ben Hall (id:1096329)

◎标 签 犯罪 / 美国 / 毒品 / 剧情 / 2021 / 真实 / 美国电影 / 青春

◎简 介

Brought to Los Angeles for treatment, a recovering junkie soon learns that the rehab center is not about helping people, but a cover for a multi-billion-dollar fraud operation that enlists addicts to recruit other addicts.

  1. ##### MediaInfo ######

  2. General

  3. Unique ID : 6741017315547884770217615079667314656 (0x51245D058B1772FB6FA6CF6079EAFE0)

  4. Complete name : [email protected]

  5. Format : Matroska

  6. Format version : Version 4

  7. File size : 10.4 GiB

  8. Duration : 1 h 52 min

  9. Overall bit rate : 13.3 Mb/s

  10. Movie name : Body Brokers 2021 1080p BluRay DD5.1 [email protected]

  11. Encoded date : UTC 2021-11-30 05:09:04

  12. Writing application : mkvmerge v38.0.0 ('The Silent Type') 64-bit

  13. Writing library : libebml v1.3.9 + libmatroska v1.5.2


  14. Video

  15. ID : 1

  16. Format : AVC

  17. Format/Info : Advanced Video Codec

  18. Format profile : [email protected]

  19. Format settings : CABAC / 5 Ref Frames

  20. Format settings, CABAC : Yes

  21. Format settings, Reference frames : 5 frames

  22. Codec ID : V_MPEG4/ISO/AVC

  23. Duration : 1 h 52 min

  24. Bit rate : 12.6 Mb/s

  25. Width : 1 920 pixels

  26. Height : 802 pixels

  27. Display aspect ratio : 2.40:1

  28. Frame rate mode : Constant

  29. Frame rate : 23.976 (24000/1001/53354) FPS

  30. Color space : YUV

  31. Chroma subsampling : 4:2:0

  32. Bit depth : 8 bits

  33. Scan type : Progressive

  34. Bits/(Pixel*Frame) : 0.340

  35. Stream size : 9.89 GiB (95%)

  36. Title : [email protected]

  37. Default : Yes

  38. Forced : No


  39. Audio

  40. ID : 2

  41. Format : AC-3

  42. Format/Info : Audio Coding 3

  43. Commercial name : Dolby Digital

  44. Codec ID : A_AC3

  45. Duration : 1 h 52 min

  46. Bit rate mode : Constant

  47. Bit rate : 640 kb/s

  48. Channel(s) : 6 channels

  49. Channel layout : L R C LFE Ls Rs

  50. Sampling rate : 48.0 kHz

  51. Frame rate : 31.250 FPS (1536 SPF)

  52. Compression mode : Lossy

  53. Stream size : 516 MiB (5%)

  54. Title : English

  55. Language : English

  56. Service kind : Complete Main

  57. Default : Yes

  58. Forced : No


  59. Text #1

  60. ID : 3

  61. Format : PGS

  62. Muxing mode : zlib

  63. Codec ID : S_HDMV/PGS

  64. Codec ID/Info : Picture based subtitle format used on BDs/HD-DVDs

  65. Duration : 1 h 46 min

  66. Bit rate : 38.8 kb/s

  67. Count of elements : 2262

  68. Stream size : 29.4 MiB (0%)

  69. Title : CHS

  70. Language : Chinese

  71. Default : Yes

  72. Forced : No


  73. Text #2

  74. ID : 4

  75. Format : PGS

  76. Muxing mode : zlib

  77. Codec ID : S_HDMV/PGS

  78. Codec ID/Info : Picture based subtitle format used on BDs/HD-DVDs

  79. Duration : 1 h 46 min

  80. Bit rate : 40.1 kb/s

  81. Count of elements : 2262

  82. Stream size : 30.4 MiB (0%)

  83. Title : CHT

  84. Language : Chinese

  85. Default : No

  86. Forced : No


  87. Text #3

  88. ID : 5

  89. Format : PGS

  90. Muxing mode : zlib

  91. Codec ID : S_HDMV/PGS

  92. Codec ID/Info : Picture based subtitle format used on BDs/HD-DVDs

  93. Duration : 1 h 47 min

  94. Bit rate : 25.6 kb/s

  95. Count of elements : 3294

  96. Stream size : 19.7 MiB (0%)

  97. Title : ENG

  98. Language : English

  99. Default : No

  100. Forced : No


  101. Menu

  102. 00:00:00.000 : en:Chapter 01

  103. 00:15:32.598 : en:Chapter 02

  104. 00:30:37.169 : en:Chapter 03

  105. 00:44:56.611 : en:Chapter 04

  106. 01:02:45.929 : en:Chapter 05

  107. 01:16:14.153 : en:Chapter 06

  108. 01:31:07.879 : en:Chapter 07

  109. 01:47:53.092 : en:Chapter 08




复制代码



文件下载


除非特别注明,本文『经纪人[中文字幕].Body.Brokers.2021.1080p.BluRay.DD5.1.x264-btbt9527.com 10.43GB』来源于互联网机器人自动抓取,非本站原创。 浮游电影网不对本文拥有版权,如有侵犯,请联系邮箱:fuyouu#yandex.com[#换成@]投诉。我们会在15个工作日内删除。 但烦请转载时请标明出处:“本文转载于『浮游电影网』,原文地址:https://www.fuyouu.com/19126.html

评论吧骚年!

发表你的见解   

昵称*

E-mail*(建议输入,以便收到博主回复的提示邮件)

验证码*

您可以使用eMule或eMule Mod(Windows)、aMule(Win、Linux、Mac)等软件下载eD2k链接。。
eMule收藏集(.emulecollection)文件是您选中的所有链接的列表文件。eMule可以直接下载它们。
按住SHIFT键选择可以选中多个选择框。
可用文件名和大小选择器来选择文件。
文件名选择器帮您根据文件名称或后缀来选择文件。不分大小写。
符号使用:
和:空格( )、+
不包含:-
或:|
转义:一对英文引号("");
匹配开头:^
匹配结尾:$
例如:
选中所有名称中包含有“eMule”或“0.49c”字眼,但不包含有“exe”字眼的:emule|0.49c -exe
选中所有名称的开头是“eMule”,结尾是“0.49c”的:^emule 0.49c$
选中所有名称中带有“eMule 0.49c”的(必须是“eMule 0.49c”,中间没有别的字符,不能是“eMule fake 0.49c”),需要转义:"emule 0.49c"
大小选择器帮您根据文件大小选择文件。