当前位置: 首页 >> 国产电影 >> 末日救援[国语配音/中文字幕].Earth.Rescue.Day.2021.1080p.WEB-DL.H264.AAC-btbt9527.com 1.04GB >> 正文

末日救援[国语配音/中文字幕].Earth.Rescue.Day.2021.1080p.WEB-DL.H264.AAC-btbt9527.com 1.04GB

2021年12月03日 08:48:17     电影发布:来源于网络     电影分类:国产电影     评论(0)    

末日救援[国语配音/中文字幕].Earth.Rescue.Day.2021.1080p.WEB DL.H264.AAC btbt9527.com 1.04GB 灾难片 科幻片 国产电影  第1张

◎译 名 末日救援 / 地球救援日

◎年 代 2021

◎产 地 中国大陆

◎类 别 科幻 / 灾难

◎语 言 汉语普通话

◎上映日期 2021-12-02(中国大陆)

◎IMDb链接 https://www.imdb.com/title//

◎豆瓣链接 https://movie.douban.com/subject/35295114/

◎片 长 91分钟

◎导 演 回宇 HuiYu (id:1325735)

◎演 员 姜超 Chao Jiang (id:1274652)

凌潇肃 Xiaosu Ling (id:1274651)

喻恩泰 Entai Yu (id:1274271)

于荣光 Ringo Yu (id:1274556)

刘剑羽 Jianyu Liu (id:1371722)

王子甲 Zijia Wang (id:1448408)

胡子程 Zicheng Hu (id:1376917)

覃文静 Wenjing Qin (id:1337002)

汪融 Rong Wang (id:1422332)

李庆誉 Qingyu Li (id:1408302)

◎标 签 科幻 / 灾难 / 中国 / 2021 / 科幻电影 / 中国大陆 / 科幻小说 / 温情

◎简 介

吞食星体的外星巨物破空而来,地球的命运岌岌可危。人类被迫进入地下城生活,不愿像蝼蚁一样生存的人类经历了二十年制造出了反击巨物的终极武器。但在决战之日到来之前,巨物提前察觉到了危机,人类地下城遭到了破坏,而反击的唯一机会,此时就把握在了一个憎恨人类的少年手中,他是否能放下仇恨,拯救人类……

  1. ##### MediaInfo ######

  2. General

  3. Complete name : 末日救援[email protected]

  4. Format : MPEG-4

  5. Format profile : Base Media

  6. Codec ID : isom (isom/iso2/avc1/mp41)

  7. File size : 1.04 GiB

  8. Duration : 1 h 31 min

  9. Overall bit rate : 1 627 kb/s

  10. Writing application : Lavf58.17.103


  11. Video

  12. ID : 1

  13. Format : AVC

  14. Format/Info : Advanced Video Codec

  15. Format profile : [email protected]

  16. Format settings : CABAC / 4 Ref Frames

  17. Format settings, CABAC : Yes

  18. Format settings, Reference frames : 4 frames

  19. Codec ID : avc1

  20. Codec ID/Info : Advanced Video Coding

  21. Duration : 1 h 31 min

  22. Bit rate : 1 527 kb/s

  23. Width : 1 920 pixels

  24. Height : 804 pixels

  25. Display aspect ratio : 2.40:1

  26. Frame rate mode : Variable

  27. Frame rate : 25.000 FPS

  28. Minimum frame rate : 24.993 FPS

  29. Maximum frame rate : 25.007 FPS

  30. Color space : YUV

  31. Chroma subsampling : 4:2:0

  32. Bit depth : 8 bits

  33. Scan type : Progressive

  34. Bits/(Pixel*Frame) : 0.040

  35. Stream size : 996 MiB (94%)

  36. Writing library : ptw-1.0.137 rcm-adapt vs-93 vwk

  37. Color range : Limited

  38. Color primaries : BT.709

  39. Transfer characteristics : BT.709

  40. Matrix coefficients : BT.709

  41. Codec configuration box : avcC


  42. Audio

  43. ID : 2

  44. Format : AAC LC

  45. Format/Info : Advanced Audio Codec Low Complexity

  46. Codec ID : mp4a-40-2

  47. Duration : 1 h 31 min

  48. Bit rate mode : Constant

  49. Bit rate : 93.4 kb/s

  50. Channel(s) : 2 channels

  51. Channel layout : L R

  52. Sampling rate : 48.0 kHz

  53. Frame rate : 46.875 FPS (1024 SPF)

  54. Compression mode : Lossy

  55. Stream size : 60.9 MiB (6%)

  56. Default : Yes

  57. Alternate group : 1




复制代码



文件下载


除非特别注明,本文『末日救援[国语配音/中文字幕].Earth.Rescue.Day.2021.1080p.WEB-DL.H264.AAC-btbt9527.com 1.04GB』来源于互联网机器人自动抓取,非本站原创。 浮游电影网不对本文拥有版权,如有侵犯,请联系邮箱:fuyouu#yandex.com[#换成@]投诉。我们会在15个工作日内删除。 但烦请转载时请标明出处:“本文转载于『浮游电影网』,原文地址:https://www.fuyouu.com/19125.html

评论吧骚年!

发表你的见解   

昵称*

E-mail*(建议输入,以便收到博主回复的提示邮件)

验证码*

您可以使用eMule或eMule Mod(Windows)、aMule(Win、Linux、Mac)等软件下载eD2k链接。。
eMule收藏集(.emulecollection)文件是您选中的所有链接的列表文件。eMule可以直接下载它们。
按住SHIFT键选择可以选中多个选择框。
可用文件名和大小选择器来选择文件。
文件名选择器帮您根据文件名称或后缀来选择文件。不分大小写。
符号使用:
和:空格( )、+
不包含:-
或:|
转义:一对英文引号("");
匹配开头:^
匹配结尾:$
例如:
选中所有名称中包含有“eMule”或“0.49c”字眼,但不包含有“exe”字眼的:emule|0.49c -exe
选中所有名称的开头是“eMule”,结尾是“0.49c”的:^emule 0.49c$
选中所有名称中带有“eMule 0.49c”的(必须是“eMule 0.49c”,中间没有别的字符,不能是“eMule fake 0.49c”),需要转义:"emule 0.49c"
大小选择器帮您根据文件大小选择文件。