当前位置: 首页 >> 欧美电影 >> 女王神剑[中文字幕].Red.Sonja.1985.1080p.BluRay.DTS.x265-10bit-btbt9527.com 6.37GB >> 正文

女王神剑[中文字幕].Red.Sonja.1985.1080p.BluRay.DTS.x265-10bit-btbt9527.com 6.37GB

2021年12月03日 08:43:35     电影发布:来源于网络     电影分类:欧美电影     评论(0)    

女王神剑[中文字幕].Red.Sonja.1985.1080p.BluRay.DTS.x265 10bit btbt9527.com 6.37GB 奇幻片 冒险片 动作片 欧美电影  第1张

◎译 名 女王神剑 / 两个大太阳 / 红发女索妮娅 / 圣女复仇

◎片 名 Red Sonja

◎年 代 1985

◎产 地 美国 / 荷兰

◎类 别 动作 / 奇幻 / 冒险

◎语 言 英语

◎上映日期 1985-07-03(美国)

◎IMDb链接 https://www.imdb.com/title/tt0089893/

◎豆瓣评分 5.7/10 (587人评价)

◎豆瓣链接 https://movie.douban.com/subject/1297394/

◎片 长 89 分钟

◎导 演 理查德·弗莱彻 Richard Fleischer (id:1036755)

◎编 剧 罗伯特·霍华德 Robert E. Howard (id:1004978)

克里夫·埃克斯顿 Clive Exton (id:1003594)

乔治·麦克唐纳·弗莱泽 George MacDonald Fraser (id:1001103)

罗伊·托马斯 Roy Thomas (id:1042277)

巴里·温莎·史密斯 Barry Windsor-Smith (id:1168323)

◎演 员 阿诺·施瓦辛格 Arnold Schwarzenegger (id:1035643)

布里吉特·尼尔森 Brigitte Nielsen (id:1010592)

桑达·伯格曼 Sandahl Bergman (id:1040700)

保罗·L·史密斯 Paul L. Smith (id:1009173)

厄尼·雷耶斯 Ernie Reyes Jr. (id:1014014)

罗纳德·莱西 Ronald Lacey (id:1111486)

帕特·罗奇 Pat Roach (id:1045132)

珍妮特·阿格伦 Janet Agren (id:1060642)

拉腊·兰贝蒂 Lara Lamberti (id:1135372)

汉斯·迈尔 Hans Meyer (id:1115981)

弗兰切丝卡·布露玛拉·科鲁奇 Francesca Romana Coluzzi (id:1068710)

史文-欧尔·托尔森 Sven-Ole Thorsen (id:1027355)

Stefano Maria Mioni Stefano Maria Mioni (id:1119560)

Tutte Lemkow Tutte Lemkow (id:1118030)

Tad Horino Tad Horino (id:1094025)

Erik Holmey Erik Holmey (id:1101459)

何塞·洛佩斯·罗德罗 José López Rodero (id:1290555)

弗兰克·J·乌里奥斯特 Frank J. Urioste (id:1299752)

达尼洛·多纳蒂 Danilo Donati (id:1282566)

达尼洛·多纳蒂 Danilo Donati (id:1282566)

何塞·洛佩斯·罗德罗 José López Rodero (id:1290555)

Bill Taylor Bill Taylor (id:1298968)

Dennis Glouner Dennis Glouner (id:1284981)

Barry Nolan Barry Nolan (id:1293237)

◎标 签 动作 / 美国 / 奇幻 / 魔幻 / 施瓦辛格 / 1985 / 美国电影 / 冒险

◎简 介

女主角索妮娅生于一个小康之家,过着平静的生活;有一天,她的父母被一名恶毒的皇族杀害。索妮娅伤心欲绝之际,誓要为父母报仇。她原来拥有一种神秘力量,可是她不可爱上男人,除非那个男人强过她,否则,她的神力就会消失。幸好在追寻那个毒后途中,遇上一名心仪的男人……

  1. ##### MediaInfo ######

  2. General

  3. Unique ID : 53078658373344841654490679429722288149 (0x27EE93E7E0844712E93943D850483015)

  4. Complete name : [email protected]

  5. Format : Matroska

  6. Format version : Version 4

  7. File size : 6.37 GiB

  8. Duration : 1 h 28 min

  9. Overall bit rate : 10.3 Mb/s

  10. Movie name : Red Sonja 1985 1080p BluRay DTS [email protected]

  11. Encoded date : UTC 2021-11-30 23:42:23

  12. Writing application : mkvmerge v38.0.0 ('The Silent Type') 64-bit

  13. Writing library : libebml v1.3.9 + libmatroska v1.5.2


  14. Video

  15. ID : 1

  16. Format : HEVC

  17. Format/Info : High Efficiency Video Coding

  18. Format profile : Main [email protected]@High

  19. Codec ID : V_MPEGH/ISO/HEVC

  20. Duration : 1 h 28 min

  21. Bit rate : 8 741 kb/s

  22. Width : 1 920 pixels

  23. Height : 820 pixels

  24. Display aspect ratio : 2.35:1

  25. Frame rate mode : Constant

  26. Frame rate : 24.000 FPS

  27. Color space : YUV

  28. Chroma subsampling : 4:2:0

  29. Bit depth : 10 bits

  30. Bits/(Pixel*Frame) : 0.231

  31. Stream size : 5.43 GiB (85%)

  32. Title : @HDSky

  33. Writing library : x265 - H.265/HEVC codec

  34. Default : Yes

  35. Forced : No


  36. Audio

  37. ID : 2

  38. Format : DTS

  39. Format/Info : Digital Theater Systems

  40. Codec ID : A_DTS

  41. Duration : 1 h 28 min

  42. Bit rate mode : Constant

  43. Bit rate : 1 509 kb/s

  44. Channel(s) : 6 channels

  45. Channel layout : C L R Ls Rs LFE

  46. Sampling rate : 48.0 kHz

  47. Frame rate : 93.750 FPS (512 SPF)

  48. Bit depth : 24 bits

  49. Compression mode : Lossy

  50. Stream size : 959 MiB (15%)

  51. Title : English

  52. Language : English

  53. Default : Yes

  54. Forced : No


  55. Text #1

  56. ID : 3

  57. Format : PGS

  58. Muxing mode : zlib

  59. Codec ID : S_HDMV/PGS

  60. Codec ID/Info : Picture based subtitle format used on BDs/HD-DVDs

  61. Duration : 1 h 25 min

  62. Bit rate : 13.6 kb/s

  63. Count of elements : 975

  64. Stream size : 8.29 MiB (0%)

  65. Title : CHS

  66. Language : Chinese

  67. Default : Yes

  68. Forced : No


  69. Text #2

  70. ID : 4

  71. Format : PGS

  72. Muxing mode : zlib

  73. Codec ID : S_HDMV/PGS

  74. Codec ID/Info : Picture based subtitle format used on BDs/HD-DVDs

  75. Duration : 1 h 25 min

  76. Bit rate : 13.9 kb/s

  77. Count of elements : 975

  78. Stream size : 8.48 MiB (0%)

  79. Title : CHT

  80. Language : Chinese

  81. Default : No

  82. Forced : No


  83. Menu

  84. 00:00:00.000 : en:Chapter 01

  85. 00:07:06.417 : en:Chapter 02

  86. 00:15:37.708 : en:Chapter 03

  87. 00:19:23.458 : en:Chapter 04

  88. 00:23:47.792 : en:Chapter 05

  89. 00:27:52.583 : en:Chapter 06

  90. 00:34:47.542 : en:Chapter 07

  91. 00:37:26.250 : en:Chapter 08

  92. 00:42:18.167 : en:Chapter 09

  93. 00:48:27.333 : en:Chapter 10

  94. 00:57:03.500 : en:Chapter 11

  95. 01:03:40.833 : en:Chapter 12

  96. 01:07:55.000 : en:Chapter 13

  97. 01:12:25.625 : en:Chapter 14

  98. 01:17:42.083 : en:Chapter 15




复制代码



文件下载


除非特别注明,本文『女王神剑[中文字幕].Red.Sonja.1985.1080p.BluRay.DTS.x265-10bit-btbt9527.com 6.37GB』来源于互联网机器人自动抓取,非本站原创。 浮游电影网不对本文拥有版权,如有侵犯,请联系邮箱:fuyouu#yandex.com[#换成@]投诉。我们会在15个工作日内删除。 但烦请转载时请标明出处:“本文转载于『浮游电影网』,原文地址:https://www.fuyouu.com/19122.html

评论吧骚年!

发表你的见解   

昵称*

E-mail*(建议输入,以便收到博主回复的提示邮件)

验证码*

您可以使用eMule或eMule Mod(Windows)、aMule(Win、Linux、Mac)等软件下载eD2k链接。。
eMule收藏集(.emulecollection)文件是您选中的所有链接的列表文件。eMule可以直接下载它们。
按住SHIFT键选择可以选中多个选择框。
可用文件名和大小选择器来选择文件。
文件名选择器帮您根据文件名称或后缀来选择文件。不分大小写。
符号使用:
和:空格( )、+
不包含:-
或:|
转义:一对英文引号("");
匹配开头:^
匹配结尾:$
例如:
选中所有名称中包含有“eMule”或“0.49c”字眼,但不包含有“exe”字眼的:emule|0.49c -exe
选中所有名称的开头是“eMule”,结尾是“0.49c”的:^emule 0.49c$
选中所有名称中带有“eMule 0.49c”的(必须是“eMule 0.49c”,中间没有别的字符,不能是“eMule fake 0.49c”),需要转义:"emule 0.49c"
大小选择器帮您根据文件大小选择文件。