当前位置: 首页 >> 动画电影 >> 白蛇2:青蛇劫起[国语配音/中文字幕].Green.Snake.2021.1080p.NF.WEB-DL.DDP5.1.x264-btbt9527.com 8.43GB >> 正文

白蛇2:青蛇劫起[国语配音/中文字幕].Green.Snake.2021.1080p.NF.WEB-DL.DDP5.1.x264-btbt9527.com 8.43GB

2021年12月02日 09:04:10     电影发布:来源于网络     电影分类:动画电影     评论(0)    

白蛇2:青蛇劫起[国语配音/中文字幕].Green.Snake.2021.1080p.NF.WEB DL.DDP5.1.x264 btbt9527.com 8.43GB 动画片 奇幻片 冒险片 动画电影  第1张

◎译 名 白蛇2:青蛇劫起 / 白蛇2 / Green Snake

◎年 代 2021

◎产 地 中国大陆

◎类 别 动画 / 奇幻 / 冒险

◎语 言 汉语普通话

◎上映日期 2021-07-23(中国大陆)

◎IMDb链接 https://www.imdb.com/title/tt15000314/

◎豆瓣评分 6.9/10 (308994人评价)

◎豆瓣链接 https://movie.douban.com/subject/30435124/

◎片 长 131分钟

◎导 演 黄家康 Amp Wong (id:1401171)

◎编 剧 大毛 Damao (id:1401317)

◎演 员 唐小喜 Xiaoxi Tang (id:1340810)

歪歪 Fuzheng Zhang (id:1433076)

魏超 Chao Wei (id:1374285)

赵铭洲 Mingzhou Zhao (id:1406075)

郑小璞 Xiaopu Zheng (id:1379735)

马程 Cheng Ma (id:1404930)

宋旭晨 (id:1458571)

邱秋 Qiu Qiu (id:1384857)

张凯 Kai Zhang (id:1320631)

徐佳琦 Jiaqi Xu (id:1366856)

关帅 Shuai Guan (id:1430950)

张碧玉 Biyu Zhang (id:1385052)

张喆 Zhe Zhang (id:1389748)

杨天翔 Tianxiang Yang (id:1341265)

宝木中阳 Ming Song (id:1334350)

林强 Qiang Lin (id:1340112)

崔迪 Di Cui (id:1401316)

孙凌宇 (id:1458987)

李捷 Jie Li (id:1403835)

王微 Gary Wang (id:1348285)

郑志昊 Zhihao Zheng (id:1397531)

李旎 Carly Lee (id:1415379)

于洲 Zhou Yu (id:1389749)

孟钧 Jun Meng (id:1403837)

郭好为 Haowei Guo (id:1339864)

周深 Shen Zhou (id:1366895)

刘惜君 Sara Liu (id:1329880)

孔佑阳 (id:1389399)

◎标 签 国漫 / 动画 / 追光动画 / 国产 / 女性 / 动漫 / 2021 / 中国大陆

◎简 介

南宋末年,小白为救许仙水漫金山,终被法海压在雷峰塔下。小青则意外被法海打入诡异的修罗城幻境。几次危机中小青被神秘蒙面少年所救,小青带着出去救出小白的执念历经劫难与成长,同蒙面少年一起寻找离开的办法。

  1. ##### MediaInfo ######

  2. General

  3. Unique ID : 41280338363835837074092396206982425607 (0x1F0E4DD16EB1F9D601C8A6F536CFEC07)

  4. Complete name : [email protected]

  5. Format : Matroska

  6. Format version : Version 4

  7. File size : 8.43 GiB

  8. Duration : 2 h 13 min

  9. Overall bit rate mode : Variable

  10. Overall bit rate : 9 068 kb/s

  11. Encoded date : UTC 2021-12-01 08:42:18

  12. Writing application : mkvmerge v62.0.0 ('Apollo') 64-bit

  13. Writing library : libebml v1.4.2 + libmatroska v1.6.4


  14. Video

  15. ID : 1

  16. Format : AVC

  17. Format/Info : Advanced Video Codec

  18. Format profile : [email protected]

  19. Format settings : CABAC / 3 Ref Frames

  20. Format settings, CABAC : Yes

  21. Format settings, Reference frames : 3 frames

  22. Codec ID : V_MPEG4/ISO/AVC

  23. Duration : 2 h 13 min

  24. Bit rate mode : Variable

  25. Bit rate : 4 582 kb/s

  26. Nominal bit rate : 6 458 kb/s

  27. Maximum bit rate : 10.2 Mb/s

  28. Width : 1 920 pixels

  29. Height : 1 080 pixels

  30. Display aspect ratio : 16:9

  31. Frame rate mode : Constant

  32. Frame rate : 24.000 FPS

  33. Color space : YUV

  34. Chroma subsampling : 4:2:0

  35. Bit depth : 8 bits

  36. Scan type : Progressive

  37. Bits/(Pixel*Frame) : 0.092

  38. Stream size : 4.26 GiB (51%)

  39. Writing library : x264 core 148 r2727 7d026e8

  40. Encoding settings : cabac=1 / ref=3 / deblock=1:0:0 / analyse=0x1:0x111 / me=umh / subme=10 / psy=1 / psy_rd=1.00:0.00 / mixed_ref=1 / me_range=24 / chroma_me=1 / trellis=2 / 8x8dct=0 / cqm=0 / deadzone=21,11 / fast_pskip=1 / chroma_qp_offset=-2 / threads=8 / lookahead_threads=1 / sliced_threads=0 / nr=0 / decimate=1 / interlaced=0 / NTMzNTQ= / bluray_compat=0 / stitchable=1 / constrained_intra=0 / bframes=2 / b_pyramid=0 / b_adapt=2 / b_bias=0 / direct=3 / weightb=1 / open_gop=0 / weightp=2 / keyint=250 / keyint_min=24 / scenecut=0 / intra_refresh=0 / rc_lookahead=48 / rc=2pass / mbtree=1 / bitrate=6458 / ratetol=1.0 / qcomp=0.50 / qpmin=6 / qpmax=51 / qpstep=4 / cplxblur=20.0 / qblur=0.5 / vbv_maxrate=10215 / vbv_bufsize=13620 / nal_hrd=vbr / filler=0 / NTMzNTQ=LmsMAP37EqsCpk / ip_ratio=1.40 / aq=1:1.00

  41. Default : Yes

  42. Forced : No


  43. Audio #1

  44. ID : 2

  45. Format : E-AC-3

  46. Format/Info : Enhanced AC-3

  47. Commercial name : Dolby Digital Plus

  48. Codec ID : A_EAC3

  49. Duration : 2 h 13 min

  50. Bit rate mode : Constant

  51. Bit rate : 640 kb/s

  52. Channel(s) : 6 channels

  53. Channel layout : L R C LFE Ls Rs

  54. Sampling rate : 48.0 kHz

  55. Frame rate : 31.250 FPS (1536 SPF)

  56. Compression mode : Lossy

  57. Stream size : 609 MiB (7%)

  58. Title : English

  59. Language : English

  60. Service kind : Complete Main

  61. Default : No

  62. Forced : No


  63. Audio #2

  64. ID : 3

  65. Format : E-AC-3

  66. Format/Info : Enhanced AC-3

  67. Commercial name : Dolby Digital Plus

  68. Codec ID : A_EAC3

  69. Duration : 2 h 13 min

  70. Bit rate mode : Constant

  71. Bit rate : 640 kb/s

  72. Channel(s) : 6 channels

  73. Channel layout : L R C LFE Ls Rs

  74. Sampling rate : 48.0 kHz

  75. Frame rate : 31.250 FPS (1536 SPF)

  76. Compression mode : Lossy

  77. Stream size : 609 MiB (7%)

  78. Title : French

  79. Language : French

  80. Service kind : Complete Main

  81. Default : No

  82. Forced : No


  83. Audio #3

  84. ID : 4

  85. Format : E-AC-3

  86. Format/Info : Enhanced AC-3

  87. Commercial name : Dolby Digital Plus

  88. Codec ID : A_EAC3

  89. Duration : 2 h 13 min

  90. Bit rate mode : Constant

  91. Bit rate : 640 kb/s

  92. Channel(s) : 6 channels

  93. Channel layout : L R C LFE Ls Rs

  94. Sampling rate : 48.0 kHz

  95. Frame rate : 31.250 FPS (1536 SPF)

  96. Compression mode : Lossy

  97. Stream size : 609 MiB (7%)

  98. Title : Japanese

  99. Language : Japanese

  100. Service kind : Complete Main

  101. Default : No

  102. Forced : No


  103. Audio #4

  104. ID : 5

  105. Format : E-AC-3

  106. Format/Info : Enhanced AC-3

  107. Commercial name : Dolby Digital Plus

  108. Codec ID : A_EAC3

  109. Duration : 2 h 13 min

  110. Bit rate mode : Constant

  111. Bit rate : 640 kb/s

  112. Channel(s) : 6 channels

  113. Channel layout : L R C LFE Ls Rs

  114. Sampling rate : 48.0 kHz

  115. Frame rate : 31.250 FPS (1536 SPF)

  116. Compression mode : Lossy

  117. Stream size : 609 MiB (7%)

  118. Title : Mandarin (Guoyu)

  119. Language : Chinese

  120. Service kind : Complete Main

  121. Default : No

  122. Forced : No


  123. Audio #5

  124. ID : 6

  125. Format : E-AC-3

  126. Format/Info : Enhanced AC-3

  127. Commercial name : Dolby Digital Plus

  128. Codec ID : A_EAC3

  129. Duration : 2 h 13 min

  130. Bit rate mode : Constant

  131. Bit rate : 640 kb/s

  132. Channel(s) : 6 channels

  133. Channel layout : L R C LFE Ls Rs

  134. Sampling rate : 48.0 kHz

  135. Frame rate : 31.250 FPS (1536 SPF)

  136. Compression mode : Lossy

  137. Stream size : 609 MiB (7%)

  138. Title : Brazilian Portuguese

  139. Language : Portuguese

  140. Service kind : Complete Main

  141. Default : No

  142. Forced : No


  143. Audio #6

  144. ID : 7

  145. Format : E-AC-3

  146. Format/Info : Enhanced AC-3

  147. Commercial name : Dolby Digital Plus

  148. Codec ID : A_EAC3

  149. Duration : 2 h 13 min

  150. Bit rate mode : Constant

  151. Bit rate : 640 kb/s

  152. Channel(s) : 6 channels

  153. Channel layout : L R C LFE Ls Rs

  154. Sampling rate : 48.0 kHz

  155. Frame rate : 31.250 FPS (1536 SPF)

  156. Compression mode : Lossy

  157. Stream size : 609 MiB (7%)

  158. Title : Spanish

  159. Language : Spanish

  160. Service kind : Complete Main

  161. Default : No

  162. Forced : No


  163. Audio #7

  164. ID : 8

  165. Format : E-AC-3

  166. Format/Info : Enhanced AC-3

  167. Commercial name : Dolby Digital Plus

  168. Codec ID : A_EAC3

  169. Duration : 2 h 13 min

  170. Bit rate mode : Constant

  171. Bit rate : 640 kb/s

  172. Channel(s) : 6 channels

  173. Channel layout : L R C LFE Ls Rs

  174. Sampling rate : 48.0 kHz

  175. Frame rate : 31.250 FPS (1536 SPF)

  176. Compression mode : Lossy

  177. Stream size : 609 MiB (7%)

  178. Title : Thai

  179. Language : Thai

  180. Service kind : Complete Main

  181. Default : No

  182. Forced : No


  183. Text #1

  184. ID : 9

  185. Format : UTF-8

  186. Codec ID : S_TEXT/UTF8

  187. Codec ID/Info : UTF-8 Plain Text

  188. Duration : 2 h 8 min

  189. Bit rate : 24 b/s

  190. Count of elements : 993

  191. Stream size : 22.7 KiB (0%)

  192. Title : English

  193. Language : English

  194. Default : Yes

  195. Forced : No


  196. Text #2

  197. ID : 10

  198. Format : UTF-8

  199. Codec ID : S_TEXT/UTF8

  200. Codec ID/Info : UTF-8 Plain Text

  201. Duration : 2 h 10 min

  202. Bit rate : 39 b/s

  203. Count of elements : 995

  204. Stream size : 37.6 KiB (0%)

  205. Title : Arabic

  206. Language : Arabic

  207. Default : No

  208. Forced : No


  209. Text #3

  210. ID : 11

  211. Format : UTF-8

  212. Codec ID : S_TEXT/UTF8

  213. Codec ID/Info : UTF-8 Plain Text

  214. Duration : 2 h 8 min

  215. Bit rate : 24 b/s

  216. Count of elements : 1127

  217. Stream size : 23.0 KiB (0%)

  218. Title : Chinese Simplified

  219. Language : Chinese

  220. Default : No

  221. Forced : No


  222. Text #4

  223. ID : 12

  224. Format : UTF-8

  225. Codec ID : S_TEXT/UTF8

  226. Codec ID/Info : UTF-8 Plain Text

  227. Duration : 2 h 10 min

  228. Bit rate : 24 b/s

  229. Count of elements : 1136

  230. Stream size : 23.4 KiB (0%)

  231. Title : Chinese Traditional

  232. Language : Chinese

  233. Default : No

  234. Forced : No


  235. Text #5

  236. ID : 13

  237. Format : UTF-8

  238. Codec ID : S_TEXT/UTF8

  239. Codec ID/Info : UTF-8 Plain Text

  240. Duration : 2 h 10 min

  241. Bit rate : 22 b/s

  242. Count of elements : 995

  243. Stream size : 21.7 KiB (0%)

  244. Title : Croatian

  245. Language : Croatian

  246. Default : No

  247. Forced : No


  248. Text #6

  249. ID : 14

  250. Format : UTF-8

  251. Codec ID : S_TEXT/UTF8

  252. Codec ID/Info : UTF-8 Plain Text

  253. Duration : 2 h 10 min

  254. Bit rate : 24 b/s

  255. Count of elements : 995

  256. Stream size : 23.2 KiB (0%)

  257. Title : Czech

  258. Language : Czech

  259. Default : No

  260. Forced : No


  261. Text #7

  262. ID : 15

  263. Format : UTF-8

  264. Codec ID : S_TEXT/UTF8

  265. Codec ID/Info : UTF-8 Plain Text

  266. Duration : 2 h 10 min

  267. Bit rate : 24 b/s

  268. Count of elements : 994

  269. Stream size : 23.4 KiB (0%)

  270. Title : Danish

  271. Language : Danish

  272. Default : No

  273. Forced : No


  274. Text #8

  275. ID : 16

  276. Format : UTF-8

  277. Codec ID : S_TEXT/UTF8

  278. Codec ID/Info : UTF-8 Plain Text

  279. Duration : 2 h 10 min

  280. Bit rate : 25 b/s

  281. Count of elements : 967

  282. Stream size : 24.3 KiB (0%)

  283. Title : Dutch

  284. Language : Dutch

  285. Default : No

  286. Forced : No


  287. Text #9

  288. ID : 17

  289. Format : UTF-8

  290. Codec ID : S_TEXT/UTF8

  291. Codec ID/Info : UTF-8 Plain Text

  292. Duration : 2 h 10 min

  293. Bit rate : 24 b/s

  294. Count of elements : 995

  295. Stream size : 23.3 KiB (0%)

  296. Title : Finnish

  297. Language : Finnish

  298. Default : No

  299. Forced : No


  300. Text #10

  301. ID : 18

  302. Format : UTF-8

  303. Codec ID : S_TEXT/UTF8

  304. Codec ID/Info : UTF-8 Plain Text

  305. Duration : 2 h 10 min

  306. Bit rate : 26 b/s

  307. Count of elements : 997

  308. Stream size : 25.8 KiB (0%)

  309. Title : French

  310. Language : French

  311. Default : No

  312. Forced : No


  313. Text #11

  314. ID : 19

  315. Format : UTF-8

  316. Codec ID : S_TEXT/UTF8

  317. Codec ID/Info : UTF-8 Plain Text

  318. Duration : 2 h 10 min

  319. Bit rate : 28 b/s

  320. Count of elements : 978

  321. Stream size : 26.9 KiB (0%)

  322. Title : German

  323. Language : German

  324. Default : No

  325. Forced : No


  326. Text #12

  327. ID : 20

  328. Format : UTF-8

  329. Codec ID : S_TEXT/UTF8

  330. Codec ID/Info : UTF-8 Plain Text

  331. Duration : 2 h 10 min

  332. Bit rate : 43 b/s

  333. Count of elements : 993

  334. Stream size : 41.9 KiB (0%)

  335. Title : Greek

  336. Language : Greek

  337. Default : No

  338. Forced : No


  339. Text #13

  340. ID : 21

  341. Format : UTF-8

  342. Codec ID : S_TEXT/UTF8

  343. Codec ID/Info : UTF-8 Plain Text

  344. Duration : 2 h 10 min

  345. Bit rate : 36 b/s

  346. Count of elements : 995

  347. Stream size : 35.0 KiB (0%)

  348. Title : Hebrew

  349. Language : Hebrew

  350. Default : No

  351. Forced : No


  352. Text #14

  353. ID : 22

  354. Format : UTF-8

  355. Codec ID : S_TEXT/UTF8

  356. Codec ID/Info : UTF-8 Plain Text

  357. Duration : 2 h 10 min

  358. Bit rate : 24 b/s

  359. Count of elements : 995

  360. Stream size : 23.2 KiB (0%)

  361. Title : Hungarian

  362. Language : Hungarian

  363. Default : No

  364. Forced : No


  365. Text #15

  366. ID : 23

  367. Format : UTF-8

  368. Codec ID : S_TEXT/UTF8

  369. Codec ID/Info : UTF-8 Plain Text

  370. Duration : 2 h 10 min

  371. Bit rate : 25 b/s

  372. Count of elements : 995

  373. Stream size : 24.1 KiB (0%)

  374. Title : Indonesian

  375. Language : Indonesian

  376. Default : No

  377. Forced : No


  378. Text #16

  379. ID : 24

  380. Format : UTF-8

  381. Codec ID : S_TEXT/UTF8

  382. Codec ID/Info : UTF-8 Plain Text

  383. Bit rate : 0 b/s

  384. Count of elements : 0

  385. Stream size : 0.00 Byte (0%)

  386. Title : Italian

  387. Language : Italian

  388. Default : No

  389. Forced : No


  390. Text #17

  391. ID : 25

  392. Format : UTF-8

  393. Codec ID : S_TEXT/UTF8

  394. Codec ID/Info : UTF-8 Plain Text

  395. Duration : 2 h 10 min

  396. Bit rate : 28 b/s

  397. Count of elements : 828

  398. Stream size : 27.2 KiB (0%)

  399. Title : Japanese

  400. Language : Japanese

  401. Default : No

  402. Forced : No


  403. Text #18

  404. ID : 26

  405. Format : UTF-8

  406. Codec ID : S_TEXT/UTF8

  407. Codec ID/Info : UTF-8 Plain Text

  408. Duration : 2 h 10 min

  409. Bit rate : 31 b/s

  410. Count of elements : 1066

  411. Stream size : 30.7 KiB (0%)

  412. Title : Korean

  413. Language : Korean

  414. Default : No

  415. Forced : No


  416. Text #19

  417. ID : 27

  418. Format : UTF-8

  419. Codec ID : S_TEXT/UTF8

  420. Codec ID/Info : UTF-8 Plain Text

  421. Duration : 2 h 10 min

  422. Bit rate : 26 b/s

  423. Count of elements : 1001

  424. Stream size : 25.1 KiB (0%)

  425. Title : Malay

  426. Language : Malay

  427. Default : No

  428. Forced : No


  429. Text #20

  430. ID : 28

  431. Format : UTF-8

  432. Codec ID : S_TEXT/UTF8

  433. Codec ID/Info : UTF-8 Plain Text

  434. Duration : 2 h 10 min

  435. Bit rate : 24 b/s

  436. Count of elements : 995

  437. Stream size : 23.2 KiB (0%)

  438. Title : Norwegian Bokmal

  439. Language : Norwegian Bokmal

  440. Default : No

  441. Forced : No


  442. Text #21

  443. ID : 29

  444. Format : UTF-8

  445. Codec ID : S_TEXT/UTF8

  446. Codec ID/Info : UTF-8 Plain Text

  447. Duration : 2 h 10 min

  448. Bit rate : 23 b/s

  449. Count of elements : 995

  450. Stream size : 22.9 KiB (0%)

  451. Title : Polish

  452. Language : Polish

  453. Default : No

  454. Forced : No


  455. Text #22

  456. ID : 30

  457. Format : UTF-8

  458. Codec ID : S_TEXT/UTF8

  459. Codec ID/Info : UTF-8 Plain Text

  460. Duration : 2 h 10 min

  461. Bit rate : 24 b/s

  462. Count of elements : 989

  463. Stream size : 23.9 KiB (0%)

  464. Title : Portuguese

  465. Language : Portuguese

  466. Default : No

  467. Forced : No


  468. Text #23

  469. ID : 31

  470. Format : UTF-8

  471. Codec ID : S_TEXT/UTF8

  472. Codec ID/Info : UTF-8 Plain Text

  473. Bit rate : 0 b/s

  474. Count of elements : 0

  475. Stream size : 0.00 Byte (0%)

  476. Title : Brazilian Portuguese

  477. Language : Portuguese

  478. Default : No

  479. Forced : No


  480. Text #24

  481. ID : 32

  482. Format : UTF-8

  483. Codec ID : S_TEXT/UTF8

  484. Codec ID/Info : UTF-8 Plain Text

  485. Duration : 2 h 10 min

  486. Bit rate : 27 b/s

  487. Count of elements : 995

  488. Stream size : 26.6 KiB (0%)

  489. Title : Romanian

  490. Language : Romanian

  491. Default : No

  492. Forced : No


  493. Text #25

  494. ID : 33

  495. Format : UTF-8

  496. Codec ID : S_TEXT/UTF8

  497. Codec ID/Info : UTF-8 Plain Text

  498. Duration : 2 h 10 min

  499. Bit rate : 41 b/s

  500. Count of elements : 994

  501. Stream size : 39.9 KiB (0%)

  502. Title : Russian

  503. Language : Russian

  504. Default : No

  505. Forced : No


  506. Text #26

  507. ID : 34

  508. Format : UTF-8

  509. Codec ID : S_TEXT/UTF8

  510. Codec ID/Info : UTF-8 Plain Text

  511. Bit rate : 0 b/s

  512. Count of elements : 0

  513. Stream size : 0.00 Byte (0%)

  514. Title : Spanish

  515. Language : Spanish

  516. Default : No

  517. Forced : No


  518. Text #27

  519. ID : 35

  520. Format : UTF-8

  521. Codec ID : S_TEXT/UTF8

  522. Codec ID/Info : UTF-8 Plain Text

  523. Duration : 2 h 10 min

  524. Bit rate : 24 b/s

  525. Count of elements : 995

  526. Stream size : 23.6 KiB (0%)

  527. Title : European Spanish

  528. Language : Spanish

  529. Default : No

  530. Forced : No


  531. Text #28

  532. ID : 36

  533. Format : UTF-8

  534. Codec ID : S_TEXT/UTF8

  535. Codec ID/Info : UTF-8 Plain Text

  536. Duration : 2 h 10 min

  537. Bit rate : 25 b/s

  538. Count of elements : 990

  539. Stream size : 24.4 KiB (0%)

  540. Title : Swedish

  541. Language : Swedish

  542. Default : No

  543. Forced : No


  544. Text #29

  545. ID : 37

  546. Format : UTF-8

  547. Codec ID : S_TEXT/UTF8

  548. Codec ID/Info : UTF-8 Plain Text

  549. Duration : 2 h 10 min

  550. Bit rate : 62 b/s

  551. Count of elements : 996

  552. Stream size : 59.6 KiB (0%)

  553. Title : Thai

  554. Language : Thai

  555. Default : No

  556. Forced : No


  557. Text #30

  558. ID : 38

  559. Format : UTF-8

  560. Codec ID : S_TEXT/UTF8

  561. Codec ID/Info : UTF-8 Plain Text

  562. Duration : 2 h 10 min

  563. Bit rate : 24 b/s

  564. Count of elements : 995

  565. Stream size : 23.9 KiB (0%)

  566. Title : Turkish

  567. Language : Turkish

  568. Default : No

  569. Forced : No


  570. Text #31

  571. ID : 39

  572. Format : UTF-8

  573. Codec ID : S_TEXT/UTF8

  574. Codec ID/Info : UTF-8 Plain Text

  575. Duration : 2 h 10 min

  576. Bit rate : 39 b/s

  577. Count of elements : 995

  578. Stream size : 37.8 KiB (0%)

  579. Title : Ukrainian

  580. Language : Ukrainian

  581. Default : No

  582. Forced : No


  583. Text #32

  584. ID : 40

  585. Format : UTF-8

  586. Codec ID : S_TEXT/UTF8

  587. Codec ID/Info : UTF-8 Plain Text

  588. Duration : 2 h 10 min

  589. Bit rate : 35 b/s

  590. Count of elements : 996

  591. Stream size : 34.4 KiB (0%)

  592. Title : Vietnamese

  593. Language : Vietnamese

  594. Default : No

  595. Forced : No




复制代码



文件下载


除非特别注明,本文『白蛇2:青蛇劫起[国语配音/中文字幕].Green.Snake.2021.1080p.NF.WEB-DL.DDP5.1.x264-btbt9527.com 8.43GB』来源于互联网机器人自动抓取,非本站原创。 浮游电影网不对本文拥有版权,如有侵犯,请联系邮箱:fuyouu#yandex.com[#换成@]投诉。我们会在15个工作日内删除。 但烦请转载时请标明出处:“本文转载于『浮游电影网』,原文地址:https://www.fuyouu.com/19119.html

评论吧骚年!

发表你的见解   

昵称*

E-mail*(建议输入,以便收到博主回复的提示邮件)

验证码*

您可以使用eMule或eMule Mod(Windows)、aMule(Win、Linux、Mac)等软件下载eD2k链接。。
eMule收藏集(.emulecollection)文件是您选中的所有链接的列表文件。eMule可以直接下载它们。
按住SHIFT键选择可以选中多个选择框。
可用文件名和大小选择器来选择文件。
文件名选择器帮您根据文件名称或后缀来选择文件。不分大小写。
符号使用:
和:空格( )、+
不包含:-
或:|
转义:一对英文引号("");
匹配开头:^
匹配结尾:$
例如:
选中所有名称中包含有“eMule”或“0.49c”字眼,但不包含有“exe”字眼的:emule|0.49c -exe
选中所有名称的开头是“eMule”,结尾是“0.49c”的:^emule 0.49c$
选中所有名称中带有“eMule 0.49c”的(必须是“eMule 0.49c”,中间没有别的字符,不能是“eMule fake 0.49c”),需要转义:"emule 0.49c"
大小选择器帮您根据文件大小选择文件。