当前位置: 首页 >> 日韩电影 >> 如果和母亲一起生活[简繁字幕].Living.with.My.Mother.2015.BluRay.1080p.DTS-HD.MA5.1.x265.10bit-btbt9527.com 11.35GB >> 正文

如果和母亲一起生活[简繁字幕].Living.with.My.Mother.2015.BluRay.1080p.DTS-HD.MA5.1.x265.10bit-btbt9527.com 11.35GB

2021年12月02日 08:47:06     电影发布:来源于网络     电影分类:日韩电影     评论(0)    

如果和母亲一起生活[简繁字幕].Living.with.My.Mother.2015.BluRay.1080p.DTS HD.MA5.1.x265.10bit btbt9527.com 11.35GB 家庭片 剧情片 日韩电影  第1张

◎译 名 如果和母亲一起生活 / 我的长崎母亲(台) / 给儿子的安魂曲(港) / 若与母亲同住 / Nagasaki: Memories of My Son / Living with My Mother

◎片 名 母と暮せば

◎年 代 2015

◎产 地 日本

◎类 别 剧情 / 家庭

◎语 言 日语

◎上映日期 2015-12-12(日本)

◎IMDb链接 https://www.imdb.com/title/tt4287852/

◎豆瓣评分 7.5/10 (11482人评价)

◎豆瓣链接 https://movie.douban.com/subject/26284955/

◎片 长 130分钟

◎导 演 山田洋次 Y?ji Yamada (id:1162794)

◎编 剧 山田洋次 Y?ji Yamada (id:1162794)

平松惠美子 Emiko Hiramatsu (id:1305787)

◎演 员 吉永小百合 Sayuri Yoshinaga (id:1033094)

二宫和也 Kazunari Ninomiya (id:1018351)

黑木华 Haru Kuroki (id:1327137)

浅野忠信 Tadanobu Asano (id:1036630)

桥爪功 Isao Hashizume (id:1053697)

广冈由里子 Yuriko Hiro'oka (id:1097341)

本田望结 Miyu Honda (id:1316141)

加藤健一 Kenichi Kato (id:1048098)

小林稔侍 Nenji Kobayashi (id:1008326)

辻万长 Kazunaga Tsuji (id:1007481)

山田美红羽 Mikuu Yamada (id:1366674)

坂本龙一 Ryuichi Sakamoto (id:1148641)

近森真史 Mafumi Chikamori (id:1338554)

◎标 签 日本 / 亲情 / 战争 / 家庭 / 2015 / 温情 / 剧情 / 反战

◎简 介

1945年8月9日,美国向日本投下原子弹。就读医科大的青年浩二(二宫和也 饰)在毫无征兆的情况下死于非命。转眼三年过去,浩二的母亲福原伸子(吉永小百合 饰)似乎渐渐承认了儿子已不在人间的事实,她的丈夫、两个儿子皆已逝去,孤身一人在信仰的支撑下走过艰苦岁月。在某个夜晚,浩二突然在母亲身边现身。伸子喜出望外,和儿子热烈交谈。浩二不改善谈的个性,与妈妈有说有笑,当然他盘桓人间还有一个理由,那就是记挂情投意合的未婚妻佐多町子(黑木华 饰)。町子而今在某个小学担任教员,她念念不忘浩二,为此耽搁了自己的婚事。

死去的人,和活着的人,他们之间的羁绊依然紧密……

◎获奖情况 (共11项)

第39届日本电影学院奖 (2016)

最佳影片(提名)

最佳编剧(提名)

最佳男主角

└──二宫和也 (id:1018351)

最佳女主角(提名)

└──吉永小百合 (id:1033094)

最佳男配角(提名)

└──浅野忠信 (id:1036630)

最佳女配角

└──黑木华 (id:1327137)

最佳摄影(提名)

最佳美术指导(提名)

最佳照明(提名)

最佳录音(提名)

最佳剪辑(提名)

  1. ##### MediaInfo ######

  2. General

  3. Unique ID : 308643011622413087312645164905555319941 (0xE8327B589E16E5C6AF3E410A106C5C85)

  4. Complete name : Living[email protected]MKVChina.mkv

  5. Format : Matroska

  6. Format version : Version 4

  7. File size : 11.3 GiB

  8. Duration : 2 h 10 min

  9. Overall bit rate mode : Variable

  10. Overall bit rate : 12.5 Mb/s

  11. Encoded date : UTC 2021-11-30 13:05:36

  12. Writing application : mkvmerge v49.0.0 ('Sick Of Losing Soulmates') 64-bit

  13. Writing library : libebml v1.4.0 + libmatroska v1.6.1


  14. Video

  15. ID : 1

  16. Format : HEVC

  17. Format/Info : High Efficiency Video Coding

  18. Format profile : Main [email protected]@High

  19. Codec ID : V_MPEGH/ISO/HEVC

  20. Duration : 2 h 10 min

  21. Bit rate : 10.0 Mb/s

  22. Width : 1 920 pixels

  23. Height : 1 038 pixels

  24. Display aspect ratio : 1.85:1

  25. Frame rate mode : Constant

  26. Frame rate : 23.976 (24000/1001/53354) FPS

  27. Color space : YUV

  28. Chroma subsampling : 4:2:0

  29. Bit depth : 10 bits

  30. Bits/(Pixel*Frame) : 0.210

  31. Stream size : 9.10 GiB (80%)

  32. Title : HEVC, [email protected]@High, 24/1.001 fps @ 10017 kbps

  33. Writing library : x265 3.4+14-gd419c7152:[Windows][GCC 10.2.0][64 bit] 10bit

  34. Encoding settings : cpuid=533541111039 / frame-threads=4 / numa-pools=16 / wpp / pmode / pme / no-psnr / no-ssim / log-level=2 / input-csp=1 / input-res=1920x1038 / interlace=0 / total-frames=187187 / level-idc=51 / high-tier=1 / uhd-bd=0 / ref=5 / no-allow-non-conformance / no-repeat-headers / annexb / no-aud / no-hrd / info / hash=0 / no-temporal-layers / open-gop / min-keyint=24 / keyint=240 / gop-lookahead=0 / bframes=6 / b-adapt=2 / b-pyramid / bframe-bias=0 / rc-lookahead=40 / lookahead-slices=0 / NTMzNTQ=uuDQuD2mJt9fsCf / scenecut=40 / hist-scenecut=0 / radl=0 / no-splice / no-intra-refresh / ctu=32 / min-cu-size=8 / no-rect / no-amp / max-tu-size=32 / tu-inter-depth=3 / tu-intra-depth=3 / limit-tu=4 / rdoq-level=2 / dynamic-rd=0.00 / no-ssim-rd / signhide / no-tskip / nr-intra=0 / nr-inter=0 / no-constrained-intra / no-strong-intra-smoothing / max-merge=4 / limit-refs=1 / limit-modes / me=3 / subme=4 / merange=25 / temporal-mvp / no-frame-dup / no-hme / weightp / weightb / no-analyze-src-pics / deblock=-3:-3 / no-sao / no-sao-non-deblock / rd=6 / selective-sao=0 / no-early-skip / rskip / no-fast-intra / no-tskip-fast / no-cu-lossless / b-intra / no-splitrd-skip / rdpenalty=0 / psy-rd=2.00 / psy-rdoq=1.00 / no-rd-refine / no-lossless / cbqpoffs=0 / crqpoffs=0 / rc=crf / crf=17.0 / qcomp=0.65 / qpstep=4 / stats-write=0 / stats-read=0 / vbv-maxrate=80000 / vbv-bufsize=80000 / vbv-init=0.9 / crf-max=0.0 / crf-min=0.0 / ipratio=1.40 / pbratio=1.30 / aq-mode=2 / aq-strength=0.85 / cutree / zone-count=0 / no-strict-cbr / qg-size=32 / no-rc-grain / qpmax=69 / qpmin=0 / no-const-vbv / sar=1 / overscan=0 / videoformat=5 / range=0 / colorprim=1 / transfer=1 / colormatrix=1 / chromaloc=0 / display-window=0 / cll=0,0 / min-luma=0 / max-luma=1023 / log2-max-poc-lsb=8 / vui-timing-info / vui-hrd-info / slices=1 / no-opt-qp-pps / no-opt-ref-list-length-pps / no-multi-pass-opt-rps / scenecut-bias=0.05 / hist-threshold=0.03 / no-opt-cu-delta-qp / no-aq-motion / no-hdr10 / no-hdr10-opt / no-dhdr10-opt / no-idr-recovery-sei / analysis-reuse-level=0 / analysis-save-reuse-level=0 / analysis-load-reuse-level=0 / scale-factor=0 / refine-intra=0 / refine-inter=0 / refine-mv=1 / refine-ctu-distortion=0 / no-limit-sao / ctu-info=0 / no-lowpass-dct / refine-analysis-type=0 / copy-pic=1 / max-ausize-factor=1.0 / no-dynamic-refine / no-single-sei / no-hevc-aq / no-svt / no-field / qp-adaptation-range=1.00 / no-scenecut-aware-qpconformance-window-offsets / right=0 / bottom=0 / NTMzNTQ= / decoder-max-rate=0

  35. Language : English

  36. Default : Yes

  37. Forced : No

  38. Color range : Limited

  39. Color primaries : BT.709

  40. Transfer characteristics : BT.709

  41. Matrix coefficients : BT.709


  42. Audio

  43. ID : 2

  44. Format : DTS XLL

  45. Format/Info : Digital Theater Systems

  46. Commercial name : DTS-HD Master Audio

  47. Codec ID : A_DTS

  48. Duration : 2 h 10 min

  49. Bit rate mode : Variable

  50. Bit rate : 2 323 kb/s

  51. Channel(s) : 6 channels

  52. Channel layout : C L R Ls Rs LFE

  53. Sampling rate : 48.0 kHz

  54. Frame rate : 93.750 FPS (512 SPF)

  55. Bit depth : 16 bits

  56. Compression mode : Lossless

  57. Stream size : 2.11 GiB (19%)

  58. Title : Japanese DTS-HD Master Audio 5.1 @ 2323 kbps

  59. Language : Japanese

  60. Default : Yes

  61. Forced : No


  62. Text #1

  63. ID : 3

  64. Format : PGS

  65. Codec ID : S_HDMV/PGS

  66. Codec ID/Info : Picture based subtitle format used on BDs/HD-DVDs

  67. Duration : 2 h 6 min

  68. Bit rate : 92.1 kb/s

  69. Count of elements : 5612

  70. Stream size : 83.1 MiB (1%)

  71. Title : Jpn/SUP

  72. Language : Japanese

  73. Default : No

  74. Forced : No


  75. Text #2

  76. ID : 4

  77. Format : PGS

  78. Codec ID : S_HDMV/PGS

  79. Codec ID/Info : Picture based subtitle format used on BDs/HD-DVDs

  80. Duration : 2 h 7 min

  81. Bit rate : 27.2 kb/s

  82. Count of elements : 3109

  83. Stream size : 24.8 MiB (0%)

  84. Title : Chs/SUP 简体

  85. Language : Chinese

  86. Default : Yes

  87. Forced : No


  88. Text #3

  89. ID : 5

  90. Format : PGS

  91. Codec ID : S_HDMV/PGS

  92. Codec ID/Info : Picture based subtitle format used on BDs/HD-DVDs

  93. Duration : 2 h 7 min

  94. Bit rate : 27.4 kb/s

  95. Count of elements : 3109

  96. Stream size : 25.0 MiB (0%)

  97. Title : Cht/SUP 繁体

  98. Language : Chinese

  99. Default : No

  100. Forced : No


  101. Menu

  102. 00:00:00.000 : en:第 01 章

  103. 00:06:01.736 : en:第 02 章

  104. 00:10:30.004 : en:第 03 章

  105. 00:24:04.610 : en:第 04 章

  106. 00:32:33.451 : en:第 05 章

  107. 00:40:57.622 : en:第 06 章

  108. 00:47:30.890 : en:第 07 章

  109. 00:55:08.430 : en:第 08 章

  110. 01:02:48.598 : en:第 09 章

  111. 01:20:10.139 : en:第 10 章

  112. 01:38:50.049 : en:第 11 章

  113. 01:51:50.829 : en:第 12 章

  114. 02:04:19.369 : en:第 13 章




复制代码



文件下载


除非特别注明,本文『如果和母亲一起生活[简繁字幕].Living.with.My.Mother.2015.BluRay.1080p.DTS-HD.MA5.1.x265.10bit-btbt9527.com 11.35GB』来源于互联网机器人自动抓取,非本站原创。 浮游电影网不对本文拥有版权,如有侵犯,请联系邮箱:fuyouu#yandex.com[#换成@]投诉。我们会在15个工作日内删除。 但烦请转载时请标明出处:“本文转载于『浮游电影网』,原文地址:https://www.fuyouu.com/19111.html

评论吧骚年!

发表你的见解   

昵称*

E-mail*(建议输入,以便收到博主回复的提示邮件)

验证码*

您可以使用eMule或eMule Mod(Windows)、aMule(Win、Linux、Mac)等软件下载eD2k链接。。
eMule收藏集(.emulecollection)文件是您选中的所有链接的列表文件。eMule可以直接下载它们。
按住SHIFT键选择可以选中多个选择框。
可用文件名和大小选择器来选择文件。
文件名选择器帮您根据文件名称或后缀来选择文件。不分大小写。
符号使用:
和:空格( )、+
不包含:-
或:|
转义:一对英文引号("");
匹配开头:^
匹配结尾:$
例如:
选中所有名称中包含有“eMule”或“0.49c”字眼,但不包含有“exe”字眼的:emule|0.49c -exe
选中所有名称的开头是“eMule”,结尾是“0.49c”的:^emule 0.49c$
选中所有名称中带有“eMule 0.49c”的(必须是“eMule 0.49c”,中间没有别的字符,不能是“eMule fake 0.49c”),需要转义:"emule 0.49c"
大小选择器帮您根据文件大小选择文件。