当前位置: 首页 >> 日韩电影 >> 杀手寓言 第二章[中文字幕].The.Fable.The.Killer.Who.Doesnt.Kill.2021.1080p.BluRay.DTS-HD.MA.5.1.x265-10bit 9.01G >> 正文

杀手寓言 第二章[中文字幕].The.Fable.The.Killer.Who.Doesnt.Kill.2021.1080p.BluRay.DTS-HD.MA.5.1.x265-10bit 9.01G

2021年12月02日 08:45:57     电影发布:来源于网络     电影分类:日韩电影     评论(0)    

杀手寓言 第二章[中文字幕].The.Fable.The.Killer.Who.Doesnt.Kill.2021.1080p.BluRay.DTS HD.MA.5.1.x265 10bit 9.01G 动作片 喜剧片 日韩电影  第1张

◎译 名 杀手寓言 第二章 / 杀手寓言2 杀不死的杀手 / 杀手寓言:杀手不杀人(台) / The Fable 2 / ザ?ファブル 第二章 / The Fable: The Killer Who Doesn't Kill

◎片 名 ザ?ファブル 殺さない殺し屋

◎年 代 2021

◎产 地 日本

◎类 别 喜剧 / 动作

◎语 言 日语

◎上映日期 2021-06-12(上海国际电影节) / 2021-06-18(日本)

◎IMDb链接 https://www.imdb.com/title/tt13017204/

◎豆瓣评分 7.7/10 (3077人评价)

◎豆瓣链接 https://movie.douban.com/subject/35184151/

◎片 长 132分钟

◎导 演 江口幹 Kan Eguchi (id:1396287)

◎编 剧 江口幹 Kan Eguchi (id:1396287)

山浦雅大 Masahiro Yamaura (id:1381805)

◎演 员 冈田准一 Junichi Okada (id:1042052)

安藤政信 Masanobu And? (id:1045426)

桥本爱实 Manami Hashimoto (id:1316624)

平手友梨奈 Yurina Hirate (id:1357504)

井之胁海 Kai Inowaki (id:1312156)

木村文乃 Fumino Kimura (id:1315257)

宫川大辅 Daisuke Miyagawa (id:1253611)

佐藤二朗 Jir? Sat? (id:1315821)

佐藤浩市 K?ichi Sat? (id:1037432)

堤真一 Shin'ichi Tsutsumi (id:1151079)

山本美月 Mizuki Yamamoto (id:1325630)

安田显 Ken Yasuda (id:1276143)

横山诚 Makoto Yokoyama (id:1460015)

◎标 签 日本 / 动作 / 日本电影 / 漫改 / 冈田准一 / 电影 / 漫画小说真人版 / 平手友梨奈

◎简 介

任何目标都能在六秒内解决,有如传说般存在的天才杀手「寓言」(冈田准一 饰),是个让黑社会闻风丧胆的狠角色。因应「老板」(佐藤浩市 饰)命令,他与搭档(木村文乃 饰)乔装兄妹档,并化名「佐藤明」过着普通人生活,更不得在大坂居住的这一年内杀害任何人…。某天,他偶然遇见神祕的轮椅少女(平手友梨奈 饰),以及看似关爱孩子未来的非营利组织创办人宇津帆(堤真一 饰)。种种不寻常的一切,让寓言回想起四年前的暗杀任务。面对风雨欲来的重重危机,寓言能否继续遵守不杀人的命令,守护自己与身边的亲友呢?

  1. ##### MediaInfo ######

  2. General

  3. Unique ID : 87895533512238186791533838715057486620 (0x422010621A005AF984AC083286963B1C)

  4. Complete name : The.Fable.The.Killer.W[email protected]MKVChina.mkv

  5. Format : Matroska

  6. Format version : Version 4

  7. File size : 9.01 GiB

  8. Duration : 2 h 11 min

  9. Overall bit rate mode : Variable

  10. Overall bit rate : 9 809 kb/s

  11. Movie name : The Fable The Killer Who Doesnt Kill 2021 1080p BluRay DTS-HD MA 5.1 [email protected]

  12. Encoded date : UTC 2021-11-25 00:15:09

  13. Writing application : mkvmerge v38.0.0 ('The Silent Type') 64-bit

  14. Writing library : libebml v1.3.9 + libmatroska v1.5.2


  15. Video

  16. ID : 1

  17. Format : HEVC

  18. Format/Info : High Efficiency Video Coding

  19. Format profile : Main [email protected]@High

  20. Codec ID : V_MPEGH/ISO/HEVC

  21. Duration : 2 h 11 min

  22. Bit rate : 5 494 kb/s

  23. Width : 1 920 pixels

  24. Height : 804 pixels

  25. Display aspect ratio : 2.40:1

  26. Frame rate mode : Constant

  27. Frame rate : 23.976 (24000/1001/53354) FPS

  28. Color space : YUV

  29. Chroma subsampling : 4:2:0

  30. Bit depth : 10 bits

  31. Bits/(Pixel*Frame) : 0.148

  32. Stream size : 5.05 GiB (56%)

  33. Title : [email protected]

  34. Writing library : x265 - H.265/HEVC codec

  35. Default : Yes

  36. Forced : No


  37. Audio

  38. ID : 2

  39. Format : DTS XLL

  40. Format/Info : Digital Theater Systems

  41. Commercial name : DTS-HD Master Audio

  42. Codec ID : A_DTS

  43. Duration : 2 h 11 min

  44. Bit rate mode : Variable

  45. Bit rate : 4 274 kb/s

  46. Channel(s) : 6 channels

  47. Channel layout : C L R Ls Rs LFE

  48. Sampling rate : 48.0 kHz

  49. Frame rate : 93.750 FPS (512 SPF)

  50. Bit depth : 24 bits

  51. Compression mode : Lossless

  52. Stream size : 3.93 GiB (44%)

  53. Title : Japanese

  54. Language : Japanese

  55. Default : Yes

  56. Forced : No


  57. Text #1

  58. ID : 3

  59. Format : PGS

  60. Muxing mode : zlib

  61. Codec ID : S_HDMV/PGS

  62. Codec ID/Info : Picture based subtitle format used on BDs/HD-DVDs

  63. Duration : 2 h 10 min

  64. Bit rate : 17.7 kb/s

  65. Count of elements : 2399

  66. Stream size : 16.5 MiB (0%)

  67. Title : CHS

  68. Language : Chinese

  69. Default : Yes

  70. Forced : No


  71. Text #2

  72. ID : 4

  73. Format : PGS

  74. Muxing mode : zlib

  75. Codec ID : S_HDMV/PGS

  76. Codec ID/Info : Picture based subtitle format used on BDs/HD-DVDs

  77. Duration : 2 h 10 min

  78. Bit rate : 18.3 kb/s

  79. Count of elements : 2424

  80. Stream size : 17.0 MiB (0%)

  81. Title : CHT

  82. Language : Chinese

  83. Default : No

  84. Forced : No


  85. Text #3

  86. ID : 5

  87. Format : PGS

  88. Muxing mode : zlib

  89. Codec ID : S_HDMV/PGS

  90. Codec ID/Info : Picture based subtitle format used on BDs/HD-DVDs

  91. Duration : 2 h 11 min

  92. Bit rate : 41.4 kb/s

  93. Count of elements : 3059

  94. Stream size : 38.9 MiB (0%)

  95. Title : JPN

  96. Language : Japanese

  97. Default : No

  98. Forced : No


  99. Menu

  100. 00:00:00.000 : en:Chapter 01

  101. 00:14:16.230 : en:Chapter 02

  102. 00:32:21.773 : en:Chapter 03

  103. 00:51:26.875 : en:Chapter 04

  104. 01:10:13.251 : en:Chapter 05

  105. 01:21:22.336 : en:Chapter 06

  106. 01:39:36.137 : en:Chapter 07

  107. 01:59:16.274 : en:Chapter 08


文件下载


除非特别注明,本文『杀手寓言 第二章[中文字幕].The.Fable.The.Killer.Who.Doesnt.Kill.2021.1080p.BluRay.DTS-HD.MA.5.1.x265-10bit 9.01G』来源于互联网机器人自动抓取,非本站原创。 浮游电影网不对本文拥有版权,如有侵犯,请联系邮箱:fuyouu#yandex.com[#换成@]投诉。我们会在15个工作日内删除。 但烦请转载时请标明出处:“本文转载于『浮游电影网』,原文地址:https://www.fuyouu.com/19110.html

评论吧骚年!

发表你的见解   

昵称*

E-mail*(建议输入,以便收到博主回复的提示邮件)

验证码*

您可以使用eMule或eMule Mod(Windows)、aMule(Win、Linux、Mac)等软件下载eD2k链接。。
eMule收藏集(.emulecollection)文件是您选中的所有链接的列表文件。eMule可以直接下载它们。
按住SHIFT键选择可以选中多个选择框。
可用文件名和大小选择器来选择文件。
文件名选择器帮您根据文件名称或后缀来选择文件。不分大小写。
符号使用:
和:空格( )、+
不包含:-
或:|
转义:一对英文引号("");
匹配开头:^
匹配结尾:$
例如:
选中所有名称中包含有“eMule”或“0.49c”字眼,但不包含有“exe”字眼的:emule|0.49c -exe
选中所有名称的开头是“eMule”,结尾是“0.49c”的:^emule 0.49c$
选中所有名称中带有“eMule 0.49c”的(必须是“eMule 0.49c”,中间没有别的字符,不能是“eMule fake 0.49c”),需要转义:"emule 0.49c"
大小选择器帮您根据文件大小选择文件。