当前位置: 首页 >> 海外电影 >> 残影余像[中文字幕].Powidoki.2016.1080p.BluRay.DTS.x264-btbt9527.com 8.64GB >> 正文

残影余像[中文字幕].Powidoki.2016.1080p.BluRay.DTS.x264-btbt9527.com 8.64GB

2021年12月02日 08:44:24     电影发布:来源于网络     电影分类:海外电影     评论(0)    

残影余像[中文字幕].Powidoki.2016.1080p.BluRay.DTS.x264 btbt9527.com 8.64GB 历史 传记 剧情片 海外电影  第1张

◎译 名 残影余像 / 残影(港 / 台) / Afterimages

◎片 名 Powidoki

◎年 代 2016

◎产 地 波兰

◎类 别 剧情 / 传记 / 历史

◎语 言 波兰语

◎上映日期 2016-09-10(多伦多电影节) / 2017-01-13(波兰)

◎IMDb链接 https://www.imdb.com/title/tt5186236/

◎豆瓣评分 7.9/10 (4500人评价)

◎豆瓣链接 https://movie.douban.com/subject/26677427/

◎片 长 98分钟

◎导 演 安杰伊·瓦伊达 Andrzej Wajda (id:1032325)

◎编 剧 安杰伊·瓦伊达 Andrzej Wajda (id:1032325)

安德烈泽杰·马拉尔克齐克 Andrzej Mularczyk (id:1021220)

◎演 员 博古斯瓦夫·林达 Boguslaw Linda (id:1012627)

亚历克桑德拉·贾斯塔 Aleksandra Justa (id:1185723)

布洛妮斯拉娃·扎马洲斯基 Bronislawa Zamachowska (id:1375118)

索菲亚·威奇拉克斯 Zofia Wichlacz (id:1348532)

克日什托夫·皮耶钦斯基 Krzysztof Pieczynski (id:1131795)

马里斯兹·博纳泽斯基 Mariusz Bonaszewski (id:1066344)

斯齐蒙·博布鲁夫斯基 Szymon Bobrowski (id:1065196)

亚历克桑德·法比西亚克 Aleksander Fabisiak (id:1085207)

保利娜·加拉萨卡 Paulina Galazka (id:1375119)

艾莉娜·梅尔彻尔 Irena Melcer (id:1375120)

托马斯·乔多罗斯基 Tomasz Chodorowski (id:1375121)

菲利普·古拉克斯 Filip Gurlacz (id:1348643)

马特兹·鲁辛 Mateusz Rusin (id:1375122)

马特兹·泽兹尼扎克 Mateusz Rzezniczak (id:1375123)

托马斯·洛索 Tomasz Wlosok (id:1374191)

玛格达莱纳·扎克 Magdalena Zak (id:1399097)

玛丽亚·塞莫蒂克 Maria Semotiuk (id:1447169)

◎标 签 波兰 / 传记 / 艺术 / 政治 / 历史 / 2016 / 文艺 / 剧情

◎简 介

弗拉迪斯瓦夫·斯特泽敏斯基(W?adys?aw Strzemiński)原是备受爱戴的大学教授与知名的前卫派画家。当斯大林提出“社会主义式的写实主义”,且被波兰当局奉为圭臬,要求上行下效时,他站在异议的那方,结果不但被撤销教职、剥夺艺术家身份,甚至连餬口饭吃的生存权也尽遭践踏。而自诩为小螺丝钉的人们,成了国家机器的暴力帮凶。

  1. ##### MediaInfo ######

  2. General

  3. Unique ID : 136521716521739403579135575575467652012 (0x66B5204E0AEB32D867A231067803F3AC)

  4. Complete name : [email protected]

  5. Format : Matroska

  6. Format version : Version 4

  7. File size : 8.64 GiB

  8. Duration : 1 h 39 min

  9. Overall bit rate : 12.4 Mb/s

  10. Movie name : Powidoki 2016 1080p BluRay DTS [email protected]

  11. Encoded date : UTC 2021-11-26 20:33:28

  12. Writing application : mkvmerge v38.0.0 ('The Silent Type') 64-bit

  13. Writing library : libebml v1.3.9 + libmatroska v1.5.2


  14. Video

  15. ID : 1

  16. Format : AVC

  17. Format/Info : Advanced Video Codec

  18. Format profile : [email protected]

  19. Format settings : CABAC / 5 Ref Frames

  20. Format settings, CABAC : Yes

  21. Format settings, Reference frames : 5 frames

  22. Codec ID : V_MPEG4/ISO/AVC

  23. Duration : 1 h 39 min

  24. Bit rate : 10.9 Mb/s

  25. Width : 1 920 pixels

  26. Height : 804 pixels

  27. Display aspect ratio : 2.40:1

  28. Frame rate mode : Constant

  29. Frame rate : 24.000 FPS

  30. Color space : YUV

  31. Chroma subsampling : 4:2:0

  32. Bit depth : 8 bits

  33. Scan type : Progressive

  34. Bits/(Pixel*Frame) : 0.294

  35. Stream size : 7.57 GiB (88%)

  36. Title : [email protected]

  37. Default : Yes

  38. Forced : No


  39. Audio

  40. ID : 2

  41. Format : DTS

  42. Format/Info : Digital Theater Systems

  43. Codec ID : A_DTS

  44. Duration : 1 h 39 min

  45. Bit rate mode : Constant

  46. Bit rate : 1 509 kb/s

  47. Channel(s) : 6 channels

  48. Channel layout : C L R Ls Rs LFE

  49. Sampling rate : 48.0 kHz

  50. Frame rate : 93.750 FPS (512 SPF)

  51. Bit depth : 24 bits

  52. Compression mode : Lossy

  53. Stream size : 1.05 GiB (12%)

  54. Title : English

  55. Language : English

  56. Default : Yes

  57. Forced : No


  58. Text #1

  59. ID : 3

  60. Format : PGS

  61. Muxing mode : zlib

  62. Codec ID : S_HDMV/PGS

  63. Codec ID/Info : Picture based subtitle format used on BDs/HD-DVDs

  64. Duration : 1 h 34 min

  65. Bit rate : 28.9 kb/s

  66. Count of elements : 1725

  67. Stream size : 19.5 MiB (0%)

  68. Title : CHS

  69. Language : Chinese

  70. Default : Yes

  71. Forced : No


  72. Text #2

  73. ID : 4

  74. Format : PGS

  75. Muxing mode : zlib

  76. Codec ID : S_HDMV/PGS

  77. Codec ID/Info : Picture based subtitle format used on BDs/HD-DVDs

  78. Duration : 1 h 34 min

  79. Bit rate : 30.0 kb/s

  80. Count of elements : 1725

  81. Stream size : 20.2 MiB (0%)

  82. Title : CHT

  83. Language : Chinese

  84. Default : No

  85. Forced : No


  86. Menu

  87. 00:00:00.000 : en:Chapter 01

  88. 00:03:50.917 : en:Chapter 02

  89. 00:11:45.958 : en:Chapter 03

  90. 00:16:41.500 : en:Chapter 04

  91. 00:22:51.458 : en:Chapter 05

  92. 00:30:33.042 : en:Chapter 06

  93. 00:37:20.125 : en:Chapter 07

  94. 00:42:58.292 : en:Chapter 08

  95. 00:48:21.208 : en:Chapter 09

  96. 00:55:41.042 : en:Chapter 10

  97. 01:03:30.333 : en:Chapter 11

  98. 01:10:02.167 : en:Chapter 12

  99. 01:14:28.000 : en:Chapter 13

  100. 01:21:26.667 : en:Chapter 14

  101. 01:26:19.667 : en:Chapter 15

  102. 01:33:47.167 : en:Chapter 16




复制代码



文件下载


除非特别注明,本文『残影余像[中文字幕].Powidoki.2016.1080p.BluRay.DTS.x264-btbt9527.com 8.64GB』来源于互联网机器人自动抓取,非本站原创。 浮游电影网不对本文拥有版权,如有侵犯,请联系邮箱:fuyouu#yandex.com[#换成@]投诉。我们会在15个工作日内删除。 但烦请转载时请标明出处:“本文转载于『浮游电影网』,原文地址:https://www.fuyouu.com/19109.html

评论吧骚年!

发表你的见解   

昵称*

E-mail*(建议输入,以便收到博主回复的提示邮件)

验证码*

您可以使用eMule或eMule Mod(Windows)、aMule(Win、Linux、Mac)等软件下载eD2k链接。。
eMule收藏集(.emulecollection)文件是您选中的所有链接的列表文件。eMule可以直接下载它们。
按住SHIFT键选择可以选中多个选择框。
可用文件名和大小选择器来选择文件。
文件名选择器帮您根据文件名称或后缀来选择文件。不分大小写。
符号使用:
和:空格( )、+
不包含:-
或:|
转义:一对英文引号("");
匹配开头:^
匹配结尾:$
例如:
选中所有名称中包含有“eMule”或“0.49c”字眼,但不包含有“exe”字眼的:emule|0.49c -exe
选中所有名称的开头是“eMule”,结尾是“0.49c”的:^emule 0.49c$
选中所有名称中带有“eMule 0.49c”的(必须是“eMule 0.49c”,中间没有别的字符,不能是“eMule fake 0.49c”),需要转义:"emule 0.49c"
大小选择器帮您根据文件大小选择文件。