当前位置: 首页 >> 动画电影 >> 神之山岭[中文字幕].The.Summit.of.the.Gods.2021.1080p.NF.WEB-DL.DDP5.1.Atmos.x264-btbt9527.com 8.20GB >> 正文

神之山岭[中文字幕].The.Summit.of.the.Gods.2021.1080p.NF.WEB-DL.DDP5.1.Atmos.x264-btbt9527.com 8.20GB

2021年12月02日 08:35:41     电影发布:来源于网络     电影分类:动画电影     评论(0)    

神之山岭[中文字幕].The.Summit.of.the.Gods.2021.1080p.NF.WEB DL.DDP5.1.Atmos.x264 btbt9527.com 8.20GB 运动 动画片 悬疑片 冒险片 剧情片 动画电影  第1张

◎译 名 神之山岭 / The Summit of the Gods

◎片 名 Le Sommet Des Dieux

◎年 代 2021

◎产 地 卢森堡 / 法国

◎类 别 剧情 / 动画 / 悬疑 / 冒险 / 运动

◎语 言 法语

◎上映日期 2021-07-10(戛纳电影节) / 2021-11-30(美国)

◎IMDb链接 https://www.imdb.com/title/tt7014378/

◎豆瓣评分 7.3/10 (65人评价)

◎豆瓣链接 https://movie.douban.com/subject/34967489/

◎片 长 95分钟

◎导 演 帕特里克·英伯特 Patrick Imbert (id:1385323)

◎编 剧 梦枕貘 Baku Yumemakura (id:1320218)

谷口治郎 Jir? Taniguchi (id:1323687)

帕特里克·英伯特 Patrick Imbert (id:1385323)

◎演 员 伊丽莎白·温图拉 Elisabeth Ventura (id:1416153)

弗朗索瓦·迪努瓦耶 Fran?ois Dunoyer (id:1079494)

高塞尔·巴特 Gauthier Battoue (id:1392007)

Cédric Dumont Cédric Dumont (id:1080426)

◎标 签 动画 / 法国 / 戛纳 / 法国电影 / 动画长片 / 谷口治郎 / 漫改 / 梦枕貘

◎简 介

《神之山岭》改编自著名漫画家谷口治郎和作家梦枕貘的漫画系列,在影片中,年轻的日本摄影记者深町发现了一部或将改变登山历史的相机。这部相机指向神秘的羽生丈二 — 一名据传已经失踪多年的孤狼登山者。深町进入了狂热登山者的世界,这些登山者们对难以征服的高山充满向往,在这个旅程中,深町一步一步地走向了神之山岭。

  1. ##### MediaInfo ######

  2. General

  3. Unique ID : 317751111506485178798341049618092629142 (0xEF0CA35753EBCF804EE8E6B703299C96)

  4. Complete name : The.[email protected]MKVChina.mkv

  5. Format : Matroska

  6. Format version : Version 4

  7. File size : 8.20 GiB

  8. Duration : 1 h 35 min

  9. Overall bit rate mode : Variable

  10. Overall bit rate : 12.2 Mb/s

  11. Encoded date : UTC 2021-11-30 10:28:49

  12. Writing application : mkvmerge v62.0.0 ('Apollo') 64-bit

  13. Writing library : libebml v1.4.2 + libmatroska v1.6.4


  14. Video

  15. ID : 1

  16. Format : AVC

  17. Format/Info : Advanced Video Codec

  18. Format profile : [email protected]

  19. Format settings : CABAC / 3 Ref Frames

  20. Format settings, CABAC : Yes

  21. Format settings, Reference frames : 3 frames

  22. Codec ID : V_MPEG4/ISO/AVC

  23. Duration : 1 h 35 min

  24. Bit rate mode : Variable

  25. Bit rate : 2 487 kb/s

  26. Nominal bit rate : 3 010 kb/s

  27. Maximum bit rate : 4 515 kb/s

  28. Width : 1 920 pixels

  29. Height : 1 080 pixels

  30. Display aspect ratio : 16:9

  31. Frame rate mode : Constant

  32. Frame rate : 24.000 FPS

  33. Color space : YUV

  34. Chroma subsampling : 4:2:0

  35. Bit depth : 8 bits

  36. Scan type : Progressive

  37. Bits/(Pixel*Frame) : 0.050

  38. Stream size : 1.67 GiB (20%)

  39. Writing library : x264 core 148 r2727 7d026e8

  40. Encoding settings : cabac=1 / ref=3 / deblock=1:0:0 / analyse=0x1:0x111 / me=umh / subme=10 / psy=1 / psy_rd=1.00:0.00 / mixed_ref=1 / me_range=24 / chroma_me=1 / trellis=2 / 8x8dct=0 / cqm=0 / deadzone=21,11 / fast_pskip=1 / chroma_qp_offset=-2 / threads=8 / lookahead_threads=1 / sliced_threads=0 / nr=0 / decimate=1 / interlaced=0 / NTMzNTQ= / bluray_compat=0 / stitchable=1 / constrained_intra=0 / bframes=2 / b_pyramid=0 / b_adapt=2 / b_bias=0 / direct=3 / weightb=1 / open_gop=0 / weightp=2 / keyint=250 / keyint_min=24 / scenecut=0 / intra_refresh=0 / rc_lookahead=48 / rc=2pass / mbtree=1 / bitrate=3010 / ratetol=1.0 / qcomp=0.50 / qpmin=6 / qpmax=51 / qpstep=4 / cplxblur=20.0 / qblur=0.5 / vbv_maxrate=4515 / vbv_bufsize=6020 / nal_hrd=vbr / filler=0 / NTMzNTQ=LmsMAP37EqsCpk / ip_ratio=1.40 / aq=1:1.00

  41. Default : Yes

  42. Forced : No


  43. Audio #1

  44. ID : 2

  45. Format : E-AC-3 JOC

  46. Format/Info : Enhanced AC-3 with Joint Object Coding

  47. Commercial name : Dolby Digital Plus with Dolby Atmos

  48. Codec ID : A_EAC3

  49. Duration : 1 h 35 min

  50. Bit rate mode : Constant

  51. Bit rate : 768 kb/s

  52. Channel(s) : 6 channels

  53. Channel layout : L R C LFE Ls Rs

  54. Sampling rate : 48.0 kHz

  55. Frame rate : 31.250 FPS (1536 SPF)

  56. Compression mode : Lossy

  57. Stream size : 527 MiB (6%)

  58. Title : French

  59. Language : French

  60. Service kind : Complete Main

  61. Default : Yes

  62. Forced : No

  63. Complexity index : 16

  64. Number of dynamic objects : 15

  65. Bed channel count : 1 channel

  66. Bed channel configuration : LFE


  67. Audio #2

  68. ID : 3

  69. Format : E-AC-3

  70. Format/Info : Enhanced AC-3

  71. Commercial name : Dolby Digital Plus

  72. Codec ID : A_EAC3

  73. Duration : 1 h 35 min

  74. Bit rate mode : Constant

  75. Bit rate : 640 kb/s

  76. Channel(s) : 6 channels

  77. Channel layout : L R C LFE Ls Rs

  78. Sampling rate : 48.0 kHz

  79. Frame rate : 31.250 FPS (1536 SPF)

  80. Compression mode : Lossy

  81. Stream size : 439 MiB (5%)

  82. Title : English

  83. Language : English

  84. Service kind : Complete Main

  85. Default : No

  86. Forced : No


  87. Audio #3

  88. ID : 4

  89. Format : E-AC-3

  90. Format/Info : Enhanced AC-3

  91. Commercial name : Dolby Digital Plus

  92. Codec ID : A_EAC3

  93. Duration : 1 h 35 min

  94. Bit rate mode : Constant

  95. Bit rate : 640 kb/s

  96. Channel(s) : 6 channels

  97. Channel layout : L R C LFE Ls Rs

  98. Sampling rate : 48.0 kHz

  99. Frame rate : 31.250 FPS (1536 SPF)

  100. Compression mode : Lossy

  101. Stream size : 439 MiB (5%)

  102. Title : Czech

  103. Language : Czech

  104. Service kind : Complete Main

  105. Default : No

  106. Forced : No


  107. Audio #4

  108. ID : 5

  109. Format : E-AC-3

  110. Format/Info : Enhanced AC-3

  111. Commercial name : Dolby Digital Plus

  112. Codec ID : A_EAC3

  113. Duration : 1 h 35 min

  114. Bit rate mode : Constant

  115. Bit rate : 640 kb/s

  116. Channel(s) : 6 channels

  117. Channel layout : L R C LFE Ls Rs

  118. Sampling rate : 48.0 kHz

  119. Frame rate : 31.250 FPS (1536 SPF)

  120. Compression mode : Lossy

  121. Stream size : 439 MiB (5%)

  122. Title : German

  123. Language : German

  124. Service kind : Complete Main

  125. Default : No

  126. Forced : No


  127. Audio #5

  128. ID : 6

  129. Format : E-AC-3

  130. Format/Info : Enhanced AC-3

  131. Commercial name : Dolby Digital Plus

  132. Codec ID : A_EAC3

  133. Duration : 1 h 35 min

  134. Bit rate mode : Constant

  135. Bit rate : 640 kb/s

  136. Channel(s) : 6 channels

  137. Channel layout : L R C LFE Ls Rs

  138. Sampling rate : 48.0 kHz

  139. Frame rate : 31.250 FPS (1536 SPF)

  140. Compression mode : Lossy

  141. Stream size : 439 MiB (5%)

  142. Title : Hindi

  143. Language : Hindi

  144. Service kind : Complete Main

  145. Default : No

  146. Forced : No


  147. Audio #6

  148. ID : 7

  149. Format : E-AC-3

  150. Format/Info : Enhanced AC-3

  151. Commercial name : Dolby Digital Plus

  152. Codec ID : A_EAC3

  153. Duration : 1 h 35 min

  154. Bit rate mode : Constant

  155. Bit rate : 640 kb/s

  156. Channel(s) : 6 channels

  157. Channel layout : L R C LFE Ls Rs

  158. Sampling rate : 48.0 kHz

  159. Frame rate : 31.250 FPS (1536 SPF)

  160. Compression mode : Lossy

  161. Stream size : 439 MiB (5%)

  162. Title : Hungarian

  163. Language : Hungarian

  164. Service kind : Complete Main

  165. Default : No

  166. Forced : No


  167. Audio #7

  168. ID : 8

  169. Format : E-AC-3

  170. Format/Info : Enhanced AC-3

  171. Commercial name : Dolby Digital Plus

  172. Codec ID : A_EAC3

  173. Duration : 1 h 35 min

  174. Bit rate mode : Constant

  175. Bit rate : 640 kb/s

  176. Channel(s) : 6 channels

  177. Channel layout : L R C LFE Ls Rs

  178. Sampling rate : 48.0 kHz

  179. Frame rate : 31.250 FPS (1536 SPF)

  180. Compression mode : Lossy

  181. Stream size : 439 MiB (5%)

  182. Title : Italian

  183. Language : Italian

  184. Service kind : Complete Main

  185. Default : No

  186. Forced : No


  187. Audio #8

  188. ID : 9

  189. Format : E-AC-3

  190. Format/Info : Enhanced AC-3

  191. Commercial name : Dolby Digital Plus

  192. Codec ID : A_EAC3

  193. Duration : 1 h 35 min

  194. Bit rate mode : Constant

  195. Bit rate : 640 kb/s

  196. Channel(s) : 6 channels

  197. Channel layout : L R C LFE Ls Rs

  198. Sampling rate : 48.0 kHz

  199. Frame rate : 31.250 FPS (1536 SPF)

  200. Compression mode : Lossy

  201. Stream size : 439 MiB (5%)

  202. Title : Polish

  203. Language : Polish

  204. Service kind : Complete Main

  205. Default : No

  206. Forced : No


  207. Audio #9

  208. ID : 10

  209. Format : E-AC-3

  210. Format/Info : Enhanced AC-3

  211. Commercial name : Dolby Digital Plus

  212. Codec ID : A_EAC3

  213. Duration : 1 h 35 min

  214. Bit rate mode : Constant

  215. Bit rate : 640 kb/s

  216. Channel(s) : 6 channels

  217. Channel layout : L R C LFE Ls Rs

  218. Sampling rate : 48.0 kHz

  219. Frame rate : 31.250 FPS (1536 SPF)

  220. Compression mode : Lossy

  221. Stream size : 439 MiB (5%)

  222. Title : Brazilian Portuguese

  223. Language : Portuguese

  224. Service kind : Complete Main

  225. Default : No

  226. Forced : No


  227. Audio #10

  228. ID : 11

  229. Format : E-AC-3

  230. Format/Info : Enhanced AC-3

  231. Commercial name : Dolby Digital Plus

  232. Codec ID : A_EAC3

  233. Duration : 1 h 35 min

  234. Bit rate mode : Constant

  235. Bit rate : 640 kb/s

  236. Channel(s) : 6 channels

  237. Channel layout : L R C LFE Ls Rs

  238. Sampling rate : 48.0 kHz

  239. Frame rate : 31.250 FPS (1536 SPF)

  240. Compression mode : Lossy

  241. Stream size : 439 MiB (5%)

  242. Title : Russian

  243. Language : Russian

  244. Service kind : Complete Main

  245. Default : No

  246. Forced : No


  247. Audio #11

  248. ID : 12

  249. Format : E-AC-3

  250. Format/Info : Enhanced AC-3

  251. Commercial name : Dolby Digital Plus

  252. Codec ID : A_EAC3

  253. Duration : 1 h 35 min

  254. Bit rate mode : Constant

  255. Bit rate : 640 kb/s

  256. Channel(s) : 6 channels

  257. Channel layout : L R C LFE Ls Rs

  258. Sampling rate : 48.0 kHz

  259. Frame rate : 31.250 FPS (1536 SPF)

  260. Compression mode : Lossy

  261. Stream size : 439 MiB (5%)

  262. Title : Spanish

  263. Language : Spanish

  264. Service kind : Complete Main

  265. Default : No

  266. Forced : No


  267. Audio #12

  268. ID : 13

  269. Format : E-AC-3

  270. Format/Info : Enhanced AC-3

  271. Commercial name : Dolby Digital Plus

  272. Codec ID : A_EAC3

  273. Duration : 1 h 35 min

  274. Bit rate mode : Constant

  275. Bit rate : 640 kb/s

  276. Channel(s) : 6 channels

  277. Channel layout : L R C LFE Ls Rs

  278. Sampling rate : 48.0 kHz

  279. Frame rate : 31.250 FPS (1536 SPF)

  280. Compression mode : Lossy

  281. Stream size : 439 MiB (5%)

  282. Title : European Spanish

  283. Language : Spanish

  284. Service kind : Complete Main

  285. Default : No

  286. Forced : No


  287. Audio #13

  288. ID : 14

  289. Format : E-AC-3

  290. Format/Info : Enhanced AC-3

  291. Commercial name : Dolby Digital Plus

  292. Codec ID : A_EAC3

  293. Duration : 1 h 35 min

  294. Bit rate mode : Constant

  295. Bit rate : 640 kb/s

  296. Channel(s) : 6 channels

  297. Channel layout : L R C LFE Ls Rs

  298. Sampling rate : 48.0 kHz

  299. Frame rate : 31.250 FPS (1536 SPF)

  300. Compression mode : Lossy

  301. Stream size : 439 MiB (5%)

  302. Title : Thai

  303. Language : Thai

  304. Service kind : Complete Main

  305. Default : No

  306. Forced : No


  307. Audio #14

  308. ID : 15

  309. Format : E-AC-3

  310. Format/Info : Enhanced AC-3

  311. Commercial name : Dolby Digital Plus

  312. Codec ID : A_EAC3

  313. Duration : 1 h 35 min

  314. Bit rate mode : Constant

  315. Bit rate : 640 kb/s

  316. Channel(s) : 6 channels

  317. Channel layout : L R C LFE Ls Rs

  318. Sampling rate : 48.0 kHz

  319. Frame rate : 31.250 FPS (1536 SPF)

  320. Compression mode : Lossy

  321. Stream size : 439 MiB (5%)

  322. Title : Turkish

  323. Language : Turkish

  324. Service kind : Complete Main

  325. Default : No

  326. Forced : No


  327. Audio #15

  328. ID : 16

  329. Format : E-AC-3

  330. Format/Info : Enhanced AC-3

  331. Commercial name : Dolby Digital Plus

  332. Codec ID : A_EAC3

  333. Duration : 1 h 35 min

  334. Bit rate mode : Constant

  335. Bit rate : 640 kb/s

  336. Channel(s) : 6 channels

  337. Channel layout : L R C LFE Ls Rs

  338. Sampling rate : 48.0 kHz

  339. Frame rate : 31.250 FPS (1536 SPF)

  340. Compression mode : Lossy

  341. Stream size : 439 MiB (5%)

  342. Title : Vietnamese

  343. Language : Vietnamese

  344. Service kind : Complete Main

  345. Default : No

  346. Forced : No


  347. Text #1

  348. ID : 17

  349. Format : UTF-8

  350. Codec ID : S_TEXT/UTF8

  351. Codec ID/Info : UTF-8 Plain Text

  352. Duration : 1 h 34 min

  353. Bit rate : 36 b/s

  354. Count of elements : 691

  355. Stream size : 25.2 KiB (0%)

  356. Title : English

  357. Language : English

  358. Default : Yes

  359. Forced : No


  360. Text #2

  361. ID : 18

  362. Format : UTF-8

  363. Codec ID : S_TEXT/UTF8

  364. Codec ID/Info : UTF-8 Plain Text

  365. Duration : 1 h 30 min

  366. Bit rate : 64 b/s

  367. Count of elements : 693

  368. Stream size : 42.4 KiB (0%)

  369. Title : Arabic

  370. Language : Arabic

  371. Default : No

  372. Forced : No


  373. Text #3

  374. ID : 19

  375. Format : UTF-8

  376. Codec ID : S_TEXT/UTF8

  377. Codec ID/Info : UTF-8 Plain Text

  378. Duration : 1 h 34 min

  379. Bit rate : 37 b/s

  380. Count of elements : 694

  381. Stream size : 25.6 KiB (0%)

  382. Title : Chinese Simplified

  383. Language : Chinese

  384. Default : No

  385. Forced : No


  386. Text #4

  387. ID : 20

  388. Format : UTF-8

  389. Codec ID : S_TEXT/UTF8

  390. Codec ID/Info : UTF-8 Plain Text

  391. Duration : 1 h 34 min

  392. Bit rate : 34 b/s

  393. Count of elements : 687

  394. Stream size : 23.9 KiB (0%)

  395. Title : Chinese Traditional

  396. Language : Chinese

  397. Default : No

  398. Forced : No


  399. Text #5

  400. ID : 21

  401. Format : UTF-8

  402. Codec ID : S_TEXT/UTF8

  403. Codec ID/Info : UTF-8 Plain Text

  404. Duration : 1 h 34 min

  405. Bit rate : 32 b/s

  406. Count of elements : 691

  407. Stream size : 22.2 KiB (0%)

  408. Title : Croatian

  409. Language : Croatian

  410. Default : No

  411. Forced : No


  412. Text #6

  413. ID : 22

  414. Format : UTF-8

  415. Codec ID : S_TEXT/UTF8

  416. Codec ID/Info : UTF-8 Plain Text

  417. Duration : 1 h 34 min

  418. Bit rate : 34 b/s

  419. Count of elements : 692

  420. Stream size : 24.1 KiB (0%)

  421. Title : Czech

  422. Language : Czech

  423. Default : No

  424. Forced : No


  425. Text #7

  426. ID : 23

  427. Format : UTF-8

  428. Codec ID : S_TEXT/UTF8

  429. Codec ID/Info : UTF-8 Plain Text

  430. Duration : 1 h 34 min

  431. Bit rate : 37 b/s

  432. Count of elements : 691

  433. Stream size : 25.9 KiB (0%)

  434. Title : Danish

  435. Language : Danish

  436. Default : No

  437. Forced : No


  438. Text #8

  439. ID : 24

  440. Format : UTF-8

  441. Codec ID : S_TEXT/UTF8

  442. Codec ID/Info : UTF-8 Plain Text

  443. Duration : 1 h 34 min

  444. Bit rate : 30 b/s

  445. Count of elements : 650

  446. Stream size : 21.3 KiB (0%)

  447. Title : Dutch

  448. Language : Dutch

  449. Default : No

  450. Forced : No


  451. Text #9

  452. ID : 25

  453. Format : UTF-8

  454. Codec ID : S_TEXT/UTF8

  455. Codec ID/Info : UTF-8 Plain Text

  456. Duration : 1 h 34 min

  457. Bit rate : 37 b/s

  458. Count of elements : 694

  459. Stream size : 25.6 KiB (0%)

  460. Title : Finnish

  461. Language : Finnish

  462. Default : No

  463. Forced : No


  464. Text #10

  465. ID : 26

  466. Format : UTF-8

  467. Codec ID : S_TEXT/UTF8

  468. Codec ID/Info : UTF-8 Plain Text

  469. Duration : 1 h 33 min

  470. Bit rate : 35 b/s

  471. Count of elements : 757

  472. Stream size : 24.2 KiB (0%)

  473. Title : French

  474. Language : French

  475. Default : No

  476. Forced : No


  477. Text #11

  478. ID : 27

  479. Format : UTF-8

  480. Codec ID : S_TEXT/UTF8

  481. Codec ID/Info : UTF-8 Plain Text

  482. Duration : 34 min 27 s

  483. Bit rate : 0 b/s

  484. Count of elements : 4

  485. Stream size : 82.0 Bytes (0%)

  486. Title : French (Forced)

  487. Language : French

  488. Default : No

  489. Forced : Yes


  490. Text #12

  491. ID : 28

  492. Format : UTF-8

  493. Codec ID : S_TEXT/UTF8

  494. Codec ID/Info : UTF-8 Plain Text

  495. Duration : 1 h 34 min

  496. Bit rate : 34 b/s

  497. Count of elements : 662

  498. Stream size : 23.8 KiB (0%)

  499. Title : German

  500. Language : German

  501. Default : No

  502. Forced : No


  503. Text #13

  504. ID : 29

  505. Format : UTF-8

  506. Codec ID : S_TEXT/UTF8

  507. Codec ID/Info : UTF-8 Plain Text

  508. Duration : 1 h 34 min

  509. Bit rate : 58 b/s

  510. Count of elements : 648

  511. Stream size : 40.2 KiB (0%)

  512. Title : Greek

  513. Language : Greek

  514. Default : No

  515. Forced : No


  516. Text #14

  517. ID : 30

  518. Format : UTF-8

  519. Codec ID : S_TEXT/UTF8

  520. Codec ID/Info : UTF-8 Plain Text

  521. Duration : 1 h 33 min

  522. Bit rate : 54 b/s

  523. Count of elements : 685

  524. Stream size : 37.8 KiB (0%)

  525. Title : Hebrew

  526. Language : Hebrew

  527. Default : No

  528. Forced : No


  529. Text #15

  530. ID : 31

  531. Format : UTF-8

  532. Codec ID : S_TEXT/UTF8

  533. Codec ID/Info : UTF-8 Plain Text

  534. Duration : 1 h 34 min

  535. Bit rate : 36 b/s

  536. Count of elements : 695

  537. Stream size : 25.0 KiB (0%)

  538. Title : Hungarian

  539. Language : Hungarian

  540. Default : No

  541. Forced : No


  542. Text #16

  543. ID : 32

  544. Format : UTF-8

  545. Codec ID : S_TEXT/UTF8

  546. Codec ID/Info : UTF-8 Plain Text

  547. Duration : 1 h 34 min

  548. Bit rate : 36 b/s

  549. Count of elements : 694

  550. Stream size : 24.9 KiB (0%)

  551. Title : Indonesian

  552. Language : Indonesian

  553. Default : No

  554. Forced : No


  555. Text #17

  556. ID : 33

  557. Format : UTF-8

  558. Codec ID : S_TEXT/UTF8

  559. Codec ID/Info : UTF-8 Plain Text

  560. Duration : 1 h 34 min

  561. Bit rate : 36 b/s

  562. Count of elements : 693

  563. Stream size : 24.9 KiB (0%)

  564. Title : Italian

  565. Language : Italian

  566. Default : No

  567. Forced : No


  568. Text #18

  569. ID : 34

  570. Format : UTF-8

  571. Codec ID : S_TEXT/UTF8

  572. Codec ID/Info : UTF-8 Plain Text

  573. Duration : 1 h 34 min

  574. Bit rate : 28 b/s

  575. Count of elements : 702

  576. Stream size : 20.0 KiB (0%)

  577. Title : Japanese

  578. Language : Japanese

  579. Default : No

  580. Forced : No


  581. Text #19

  582. ID : 35

  583. Format : UTF-8

  584. Codec ID : S_TEXT/UTF8

  585. Codec ID/Info : UTF-8 Plain Text

  586. Duration : 1 h 34 min

  587. Bit rate : 42 b/s

  588. Count of elements : 749

  589. Stream size : 29.0 KiB (0%)

  590. Title : Korean

  591. Language : Korean

  592. Default : No

  593. Forced : No


  594. Text #20

  595. ID : 36

  596. Format : UTF-8

  597. Codec ID : S_TEXT/UTF8

  598. Codec ID/Info : UTF-8 Plain Text

  599. Duration : 1 h 34 min

  600. Bit rate : 34 b/s

  601. Count of elements : 694

  602. Stream size : 23.8 KiB (0%)

  603. Title : Malay

  604. Language : Malay

  605. Default : No

  606. Forced : No


  607. Text #21

  608. ID : 37

  609. Format : UTF-8

  610. Codec ID : S_TEXT/UTF8

  611. Codec ID/Info : UTF-8 Plain Text

  612. Duration : 1 h 34 min

  613. Bit rate : 32 b/s

  614. Count of elements : 623

  615. Stream size : 22.3 KiB (0%)

  616. Title : Norwegian Bokmal

  617. Language : Norwegian Bokmal

  618. Default : No

  619. Forced : No


  620. Text #22

  621. ID : 38

  622. Format : UTF-8

  623. Codec ID : S_TEXT/UTF8

  624. Codec ID/Info : UTF-8 Plain Text

  625. Duration : 1 h 34 min

  626. Bit rate : 33 b/s

  627. Count of elements : 689

  628. Stream size : 23.1 KiB (0%)

  629. Title : Polish

  630. Language : Polish

  631. Default : No

  632. Forced : No


  633. Text #23

  634. ID : 39

  635. Format : UTF-8

  636. Codec ID : S_TEXT/UTF8

  637. Codec ID/Info : UTF-8 Plain Text

  638. Duration : 1 h 34 min

  639. Bit rate : 35 b/s

  640. Count of elements : 665

  641. Stream size : 24.7 KiB (0%)

  642. Title : Portuguese

  643. Language : Portuguese

  644. Default : No

  645. Forced : No


  646. Text #24

  647. ID : 40

  648. Format : UTF-8

  649. Codec ID : S_TEXT/UTF8

  650. Codec ID/Info : UTF-8 Plain Text

  651. Duration : 1 h 34 min

  652. Bit rate : 34 b/s

  653. Count of elements : 689

  654. Stream size : 23.6 KiB (0%)

  655. Title : Brazilian Portuguese

  656. Language : Portuguese

  657. Default : No

  658. Forced : No


  659. Text #25

  660. ID : 41

  661. Format : UTF-8

  662. Codec ID : S_TEXT/UTF8

  663. Codec ID/Info : UTF-8 Plain Text

  664. Duration : 1 h 34 min

  665. Bit rate : 37 b/s

  666. Count of elements : 677

  667. Stream size : 26.0 KiB (0%)

  668. Title : Romanian

  669. Language : Romanian

  670. Default : No

  671. Forced : No


  672. Text #26

  673. ID : 42

  674. Format : UTF-8

  675. Codec ID : S_TEXT/UTF8

  676. Codec ID/Info : UTF-8 Plain Text

  677. Duration : 1 h 34 min

  678. Bit rate : 55 b/s

  679. Count of elements : 698

  680. Stream size : 38.5 KiB (0%)

  681. Title : Russian

  682. Language : Russian

  683. Default : No

  684. Forced : No


  685. Text #27

  686. ID : 43

  687. Format : UTF-8

  688. Codec ID : S_TEXT/UTF8

  689. Codec ID/Info : UTF-8 Plain Text

  690. Duration : 1 h 34 min

  691. Bit rate : 37 b/s

  692. Count of elements : 687

  693. Stream size : 25.6 KiB (0%)

  694. Title : Spanish

  695. Language : Spanish

  696. Default : No

  697. Forced : No


  698. Text #28

  699. ID : 44

  700. Format : UTF-8

  701. Codec ID : S_TEXT/UTF8

  702. Codec ID/Info : UTF-8 Plain Text

  703. Duration : 1 h 34 min

  704. Bit rate : 34 b/s

  705. Count of elements : 640

  706. Stream size : 24.0 KiB (0%)

  707. Title : European Spanish

  708. Language : Spanish

  709. Default : No

  710. Forced : No


  711. Text #29

  712. ID : 45

  713. Format : UTF-8

  714. Codec ID : S_TEXT/UTF8

  715. Codec ID/Info : UTF-8 Plain Text

  716. Duration : 1 h 34 min

  717. Bit rate : 34 b/s

  718. Count of elements : 638

  719. Stream size : 23.7 KiB (0%)

  720. Title : Swedish

  721. Language : Swedish

  722. Default : No

  723. Forced : No


  724. Text #30

  725. ID : 46

  726. Format : UTF-8

  727. Codec ID : S_TEXT/UTF8

  728. Codec ID/Info : UTF-8 Plain Text

  729. Duration : 1 h 34 min

  730. Bit rate : 91 b/s

  731. Count of elements : 697

  732. Stream size : 63.1 KiB (0%)

  733. Title : Thai

  734. Language : Thai

  735. Default : No

  736. Forced : No


  737. Text #31

  738. ID : 47

  739. Format : UTF-8

  740. Codec ID : S_TEXT/UTF8

  741. Codec ID/Info : UTF-8 Plain Text

  742. Duration : 1 h 34 min

  743. Bit rate : 35 b/s

  744. Count of elements : 670

  745. Stream size : 24.8 KiB (0%)

  746. Title : Turkish

  747. Language : Turkish

  748. Default : No

  749. Forced : No


  750. Text #32

  751. ID : 48

  752. Format : UTF-8

  753. Codec ID : S_TEXT/UTF8

  754. Codec ID/Info : UTF-8 Plain Text

  755. Duration : 1 h 34 min

  756. Bit rate : 55 b/s

  757. Count of elements : 678

  758. Stream size : 38.4 KiB (0%)

  759. Title : Ukrainian

  760. Language : Ukrainian

  761. Default : No

  762. Forced : No


  763. Text #33

  764. ID : 49

  765. Format : UTF-8

  766. Codec ID : S_TEXT/UTF8

  767. Codec ID/Info : UTF-8 Plain Text

  768. Duration : 1 h 34 min

  769. Bit rate : 49 b/s

  770. Count of elements : 689

  771. Stream size : 34.1 KiB (0%)

  772. Title : Vietnamese

  773. Language : Vietnamese

  774. Default : No

  775. Forced : No




复制代码



文件下载


除非特别注明,本文『神之山岭[中文字幕].The.Summit.of.the.Gods.2021.1080p.NF.WEB-DL.DDP5.1.Atmos.x264-btbt9527.com 8.20GB』来源于互联网机器人自动抓取,非本站原创。 浮游电影网不对本文拥有版权,如有侵犯,请联系邮箱:fuyouu#yandex.com[#换成@]投诉。我们会在15个工作日内删除。 但烦请转载时请标明出处:“本文转载于『浮游电影网』,原文地址:https://www.fuyouu.com/19106.html

评论吧骚年!

发表你的见解   

昵称*

E-mail*(建议输入,以便收到博主回复的提示邮件)

验证码*

您可以使用eMule或eMule Mod(Windows)、aMule(Win、Linux、Mac)等软件下载eD2k链接。。
eMule收藏集(.emulecollection)文件是您选中的所有链接的列表文件。eMule可以直接下载它们。
按住SHIFT键选择可以选中多个选择框。
可用文件名和大小选择器来选择文件。
文件名选择器帮您根据文件名称或后缀来选择文件。不分大小写。
符号使用:
和:空格( )、+
不包含:-
或:|
转义:一对英文引号("");
匹配开头:^
匹配结尾:$
例如:
选中所有名称中包含有“eMule”或“0.49c”字眼,但不包含有“exe”字眼的:emule|0.49c -exe
选中所有名称的开头是“eMule”,结尾是“0.49c”的:^emule 0.49c$
选中所有名称中带有“eMule 0.49c”的(必须是“eMule 0.49c”,中间没有别的字符,不能是“eMule fake 0.49c”),需要转义:"emule 0.49c"
大小选择器帮您根据文件大小选择文件。