当前位置: 首页 >> 日韩电影 >> 双生薄荷[中文字幕].Double.Mints.2017.1080p.WEB-DL.AAC2.0.H.264-btbt9527.com 3.59GB >> 正文

双生薄荷[中文字幕].Double.Mints.2017.1080p.WEB-DL.AAC2.0.H.264-btbt9527.com 3.59GB

2021年12月02日 08:33:27     电影发布:来源于网络     电影分类:日韩电影     评论(0)    

双生薄荷[中文字幕].Double.Mints.2017.1080p.WEB DL.AAC2.0.H.264 btbt9527.com 3.59GB 同性 剧情片 日韩电影  第1张

◎译 名 双生薄荷 / Double Mints

◎片 名 ダブルミンツ

◎年 代 2017

◎产 地 日本

◎类 别 剧情 / 同性

◎语 言 日语 / 韩语

◎上映日期 2017-06-03(日本)

◎IMDb链接 https://www.imdb.com/title/tt6488382/

◎豆瓣评分 6.9/10 (4952人评价)

◎豆瓣链接 https://movie.douban.com/subject/26965856/

◎片 长 100分钟

◎导 演 内田英治 Eiji Uchida (id:1353929)

◎编 剧 内田英治 Eiji Uchida (id:1353929)

中村明日美子 Asumiko Nakamura (id:1358241)

◎演 员 渊上泰史 Yasushi Fuchikami (id:1342122)

田中俊介 Shunsuke Tanaka (id:1372590)

须贺健太 Kenta Suga (id:1029983)

川笼石骏平 Shunpei Kawagoishi (id:1384708)

富手麻妙 Ami Tomite (id:1352097)

每熊克哉 Katsuya Maiguma (id:1358580)

一濑绫子 Ayako Ichinose (id:1360400)

川崎美海 Myu Kawasaki (id:1380059)

菅原大吉 Daikichi Sugawara (id:1336210)

高桥和也 Kazuya Takahashi (id:1045940)

小木茂光 Shigemitsu Ogi (id:1038695)

(id:1376122)

◎标 签 日本 / 同性 / BL / 漫画改编 / 同性爱 / LGBT / 犯罪 / 悬疑

◎简 介

《同级生》作者中村明日美子的耽美漫改新片。壹河光夫和市川光央从少年时代就形成了一个听从另一个命令的主仆关系,长大后的一件谋杀将指引他们再度交织。

  1. ##### MediaInfo ######

  2. General

  3. Unique ID : 312455832500631044306219112641552575094 (0xEB10CDEDE376333DE61C2ACCAD91EA76)

  4. Complete name : Double[email protected]

  5. Format : Matroska

  6. Format version : Version 4

  7. File size : 3.59 GiB

  8. Duration : 1 h 41 min

  9. Overall bit rate : 5 050 kb/s

  10. Encoded date : UTC 2021-11-30 11:52:33

  11. Writing application : mkvmerge v56.1.0 ('My Friend') 64-bit

  12. Writing library : libebml v1.4.2 + libmatroska v1.6.4


  13. Video

  14. ID : 1

  15. Format : AVC

  16. Format/Info : Advanced Video Codec

  17. Format profile : [email protected]

  18. Format settings : 3 Ref Frames

  19. Format settings, CABAC : No

  20. Format settings, Reference frames : 3 frames

  21. Format settings, GOP : M=1, N=30

  22. Codec ID : V_MPEG4/ISO/AVC

  23. Duration : 1 h 41 min

  24. Bit rate : 4 919 kb/s

  25. Width : 1 920 pixels

  26. Height : 1 080 pixels

  27. Display aspect ratio : 16:9

  28. Frame rate mode : Constant

  29. Frame rate : 30.000 FPS

  30. Color space : YUV

  31. Chroma subsampling : 4:2:0

  32. Bit depth : 8 bits

  33. Scan type : Progressive

  34. Bits/(Pixel*Frame) : 0.079

  35. Stream size : 3.50 GiB (97%)

  36. Language : English

  37. Default : Yes

  38. Forced : No


  39. Audio

  40. ID : 2

  41. Format : AAC LC

  42. Format/Info : Advanced Audio Codec Low Complexity

  43. Codec ID : A_AAC-2

  44. Duration : 1 h 41 min

  45. Bit rate : 128 kb/s

  46. Channel(s) : 2 channels

  47. Channel layout : L R

  48. Sampling rate : 44.1 kHz

  49. Frame rate : 43.066 FPS (1024 SPF)

  50. Compression mode : Lossy

  51. Stream size : 93.2 MiB (3%)

  52. Language : Japanese

  53. Default : Yes

  54. Forced : No




复制代码



文件下载


除非特别注明,本文『双生薄荷[中文字幕].Double.Mints.2017.1080p.WEB-DL.AAC2.0.H.264-btbt9527.com 3.59GB』来源于互联网机器人自动抓取,非本站原创。 浮游电影网不对本文拥有版权,如有侵犯,请联系邮箱:fuyouu#yandex.com[#换成@]投诉。我们会在15个工作日内删除。 但烦请转载时请标明出处:“本文转载于『浮游电影网』,原文地址:https://www.fuyouu.com/19105.html

评论吧骚年!

发表你的见解   

昵称*

E-mail*(建议输入,以便收到博主回复的提示邮件)

验证码*

您可以使用eMule或eMule Mod(Windows)、aMule(Win、Linux、Mac)等软件下载eD2k链接。。
eMule收藏集(.emulecollection)文件是您选中的所有链接的列表文件。eMule可以直接下载它们。
按住SHIFT键选择可以选中多个选择框。
可用文件名和大小选择器来选择文件。
文件名选择器帮您根据文件名称或后缀来选择文件。不分大小写。
符号使用:
和:空格( )、+
不包含:-
或:|
转义:一对英文引号("");
匹配开头:^
匹配结尾:$
例如:
选中所有名称中包含有“eMule”或“0.49c”字眼,但不包含有“exe”字眼的:emule|0.49c -exe
选中所有名称的开头是“eMule”,结尾是“0.49c”的:^emule 0.49c$
选中所有名称中带有“eMule 0.49c”的(必须是“eMule 0.49c”,中间没有别的字符,不能是“eMule fake 0.49c”),需要转义:"emule 0.49c"
大小选择器帮您根据文件大小选择文件。