当前位置: 首页 >> 欧美电影 >> 土京盗宝记[中文字幕].Topkapi.1964.BluRay.1080p.x265.10bit.FLAC.MNHD-btbt9527.com 7.89GB >> 正文

土京盗宝记[中文字幕].Topkapi.1964.BluRay.1080p.x265.10bit.FLAC.MNHD-btbt9527.com 7.89GB

2021年12月02日 08:28:11     电影发布:来源于网络     电影分类:欧美电影     评论(0)    

土京盗宝记[中文字幕].Topkapi.1964.BluRay.1080p.x265.10bit.FLAC.MNHD btbt9527.com 7.89GB 冒险片 犯罪片 惊悚片 欧美电影  第1张

◎译 名 土京盗宝记 / 通天大盗

◎片 名 Topkapi

◎年 代 1964

◎产 地 美国

◎类 别 惊悚 / 犯罪 / 冒险

◎语 言 英语 / 法语 / 土耳其语 / 德语 / 希腊语 / 意大利语

◎上映日期 1964-09-02

◎IMDb链接 https://www.imdb.com/title/tt0058672/

◎豆瓣评分 7.3/10 (283人评价)

◎豆瓣链接 https://movie.douban.com/subject/1303294/

◎片 长 120 分钟

◎导 演 朱尔斯·达辛 Jules Dassin (id:1036836)

◎编 剧 蒙哈·达尼切夫斯基 Monja Danischewsky (id:1045815)

埃里克·安卜勒 Eric Ambler (id:1013751)

◎演 员 玛丽娜·墨蔻莉 Melina Mercouri (id:1027503)

彼得·乌斯蒂诺夫 Peter Ustinov (id:1002761)

马克西米连·谢尔 Maximilian Schell (id:1036431)

杰斯·哈恩 Jess Hahn (id:1097255)

乔·达辛 Joseph Dassin (id:1082892)

Senih Orkan Senih Orkan (id:1126793)

阿基姆·坦米罗夫 Akim Tamiroff (id:1149432)

Despo Diamantidou Despo Diamantidou (id:1080689)

朱尔斯·达辛 Jules Dassin (id:1036836)

罗伯特·莫利 Robert Morley (id:1018256)

吉勒·塞加尔 Gilles Ségal (id:1016962)

蒂托斯·万迪 Titos Vandis (id:1155353)

Lee Katz Lee Katz (id:1017271)

朱尔斯·达辛 Jules Dassin (id:1036836)

马诺斯·哈蒂达基斯 Manos Hatzidakis (id:1055609)

亨利·阿勒康 Henri Alekan (id:1008171)

汤姆·佩夫斯纳 Tom Pevsner (id:1030441)

乔·达辛 Joseph Dassin (id:1082892)

◎标 签 美国 / 犯罪 / 朱尔斯·达辛 / 冒险 / 1964 / 1960s / 美国电影 / JulesDassin

◎简 介

讲述了发生在伊斯坦布尔的Topkapi宫博物馆里的盗宝案……

影片在土耳其和伊斯坦布尔宫廷的外景拍摄,令画面显得华美非常。片中有着令人难忘的角色和类似《不可能的任务》(Mission Imposible)那样的盗窃高手表演。总的来说,这部作品让人觉得丰富多彩和极具吸引力。

在六十年代,欧美影坛曾流行盗宝喜剧的风潮,朱尔斯·达辛在伊斯坦弩尔和希腊拍摄的这部影片是其中代表作之一。

片中角色鲜活有趣,演员之间的互动处处擦出火花,加上巧妙的盗宝过程,造成一流的娱乐效果。剧情描述梅莲娜·梅尔库丽跟她的情人马克西米利安·谢尔,想偷取土耳其博物馆珍藏的无价之宝短剑,由于守卫森严,他们只好雇用一群犯罪专家进行盗宝计划。

不料负责开车的小老千彼得·乌斯蒂诺夫被警方误以为是恐怖分子之一,威胁他作警方内应,因此,一个计划周详的抢劫平添了不可测的变数。

◎获奖情况 (共1项)

第37届奥斯卡金像奖 (1965)

最佳男配角

└──彼得·乌斯蒂诺夫 (id:1002761)

  1. ##### MediaInfo ######

  2. General

  3. Unique ID : 127057698264030865044324844606156932434 (0x5F966C2DE2C2CFDDE737C66D5AFF8552)

  4. Complete name : [email protected]v

  5. Format : Matroska

  6. Format version : Version 4

  7. File size : 7.89 GiB

  8. Duration : 1 h 59 min

  9. Overall bit rate mode : Variable

  10. Overall bit rate : 9 437 kb/s

  11. Encoded date : UTC 2021-11-30 10:10:53

  12. Writing application : mkvmerge v63.0.0 ('Everything') 64-bit

  13. Writing library : libebml v1.4.2 + libmatroska v1.6.4


  14. Video

  15. ID : 1

  16. Format : HEVC

  17. Format/Info : High Efficiency Video Coding

  18. Format profile : Main [email protected]@High

  19. Codec ID : V_MPEGH/ISO/HEVC

  20. Duration : 1 h 59 min

  21. Bit rate : 8 945 kb/s

  22. Width : 1 790 pixels

  23. Height : 1 080 pixels

  24. Display aspect ratio : 5:3

  25. Frame rate mode : Constant

  26. Frame rate : 23.976 (24000/1001/53354) FPS

  27. Color space : YUV

  28. Chroma subsampling : 4:2:0

  29. Bit depth : 10 bits

  30. Bits/(Pixel*Frame) : 0.193

  31. Stream size : 7.48 GiB (95%)

  32. Writing library : x265 3.1+2-g764455672+26:[Windows][GCC 8.3.0][64 bit] Yuuki 10bit+8bit+12bit

  33. Encoding settings : rc=crf / crf=23.0000 / qcomp=0.65 / qpstep=4 / stats-write=0 / stats-read=0 / vbv-maxrate=40000 / vbv-bufsize=40000 / vbv-init=0.9 / crf-max=0.0 / crf-min=0.0 / no-lossless / no-cu-lossless / aq-mode=1 / aq-strength=0.80 / cbqpoffs=-3 / crqpoffs=-3 / ipratio=1.40 / pbratio=1.30 / psy-rd=2.00 / psy-rdoq=5.00 / deblock=-1:-1 / ref=5 / limit-refs=1 / limit-modes / bframes=8 / b-adapt=2 / bframe-bias=0 / b-pyramid / b-intra / weightp / weightb / min-keyint=23 / max-keyint=240 / rc-lookahead=60 / gop-lookahead=0 / NTMzNTQ=uuDQuD2mJt9fsCf / scenecut=40 / radl=0 / max-cu-size=32 / min-cu-size=8 / me=3 / subme=4 / merange=25 / rdoq-level=1 / rd=4 / rdpenalty=1 / dynamic-rd=0.00 / no-rd-refine / ----- / no-cutree / no-sao / no-rect / no-amp / no-open-gop / wpp / pmode / pme / no-psnr / no-ssim / nr-intra=0 / nr-inter=0 / no-constrained-intra / no-strong-intra-smoothing / max-tu-size=16 / tu-inter-depth=2 / tu-intra-depth=2 / limit-tu=0 / qg-size=8 / qpmax=69 / qpmin=0 / ----- / cpuid=533541111039 / frame-threads=6 / numa-pools=32,32 / log-level=2 / csv / csv-log-level=0 / input-csp=1 / input-res=1790x1080 / interlace=0 / level-idc=0 / high-tier=1 / uhd-bd=0 / no-allow-non-conformance / no-repeat-headers / no-aud / no-hrd / info / hash=0 / no-temporal-layers / lookahead-slices=0 / no-splice / no-intra-refresh / no-ssim-rd / signhide / no-tskip / max-merge=5 / temporal-mvp / no-analyze-src-pics / no-sao-non-deblock / no-early-skip / rskip / no-fast-intra / no-tskip-fast / no-splitrd-skip / zone-count=0 / no-strict-cbr / no-rc-grain / no-const-vbv / sar=0 / overscan=0 / videoformat=5 / range=0 / colorprim=1 / transfer=1 / colormatrix=1 / chromaloc=0 / display-window=0cll=0,0 / min-luma=0 / max-luma=1023 / log2-max-poc-lsb=8 / vui-timing-info / vui-hrd-info / slices=1 / no-opt-qp-pps / no-opt-ref-list-length-pps / no-multi-pass-opt-rps / scenecut-bias=0.05 / no-opt-cu-delta-qp / no-aq-motion / no-hdr / no-hdr-opt / no-dhdr10-opt / no-idr-recovery-sei / analysis-reuse-level=5 / scale-factor=0 / refine-intra=0 / refine-inter=0 / refine-mv=0 / refine-ctu-distortion=0 / no-limit-sao / ctu-info=0 / no-lowpass-dct / refine-analysis-type=0 / copy-pic=1 / max-ausize-factor=1.0 / no-dynamic-refine / no-single-sei / no-hevc-aq / no-svt / no-field / qp-adaptation-range=1.00

  34. Default : Yes

  35. Forced : No

  36. Color range : Limited

  37. Color primaries : BT.709

  38. Transfer characteristics : BT.709

  39. Matrix coefficients : BT.709


  40. Audio

  41. ID : 2

  42. Format : FLAC

  43. Format/Info : Free Lossless Audio Codec

  44. Codec ID : A_FLAC

  45. Duration : 1 h 59 min

  46. Bit rate mode : Variable

  47. Bit rate : 458 kb/s

  48. Channel(s) : 2 channels

  49. Channel layout : L R

  50. Sampling rate : 48.0 kHz

  51. Frame rate : 11.719 FPS (4096 SPF)

  52. Bit depth : 16 bits

  53. Compression mode : Lossless

  54. Stream size : 393 MiB (5%)

  55. Writing library : libFLAC 1.2.1 (UTC 2007-09-17)

  56. Language : English

  57. Default : Yes

  58. Forced : No


  59. Text #1

  60. ID : 3

  61. Format : PGS

  62. Muxing mode : zlib

  63. Codec ID : S_HDMV/PGS

  64. Codec ID/Info : Picture based subtitle format used on BDs/HD-DVDs

  65. Duration : 1 h 58 min

  66. Bit rate : 21.9 kb/s

  67. Count of elements : 1786

  68. Stream size : 18.5 MiB (0%)

  69. Language : English

  70. Default : Yes

  71. Forced : No


  72. Text #2

  73. ID : 4

  74. Format : PGS

  75. Muxing mode : zlib

  76. Codec ID : S_HDMV/PGS

  77. Codec ID/Info : Picture based subtitle format used on BDs/HD-DVDs

  78. Duration : 1 h 58 min

  79. Bit rate : 29.0 kb/s

  80. Count of elements : 1930

  81. Stream size : 24.5 MiB (0%)

  82. Title : CHS

  83. Language : Chinese

  84. Default : No

  85. Forced : No


  86. Text #3

  87. ID : 5

  88. Format : PGS

  89. Muxing mode : zlib

  90. Codec ID : S_HDMV/PGS

  91. Codec ID/Info : Picture based subtitle format used on BDs/HD-DVDs

  92. Duration : 1 h 58 min

  93. Bit rate : 29.3 kb/s

  94. Count of elements : 1930

  95. Stream size : 24.7 MiB (0%)

  96. Title : CHT

  97. Language : Chinese

  98. Default : No

  99. Forced : No


  100. Menu

  101. 00:00:00.000 : :Chapter 01

  102. 00:06:35.853 : :Chapter 02

  103. 00:11:38.614 : :Chapter 03

  104. 00:16:07.091 : :Chapter 04

  105. 00:22:46.031 : :Chapter 05

  106. 00:32:21.064 : :Chapter 06

  107. 00:36:39.530 : :Chapter 07

  108. 00:41:48.130 : :Chapter 08

  109. 00:50:31.236 : :Chapter 09

  110. 00:56:49.823 : :Chapter 10

  111. 01:05:15.453 : :Chapter 11

  112. 01:13:28.153 : :Chapter 12

  113. 01:22:08.924 : :Chapter 13

  114. 01:30:40.726 : :Chapter 14

  115. 01:52:26.531 : :Chapter 15

  116. 01:58:48.329 : :Chapter 16




复制代码



文件下载


除非特别注明,本文『土京盗宝记[中文字幕].Topkapi.1964.BluRay.1080p.x265.10bit.FLAC.MNHD-btbt9527.com 7.89GB』来源于互联网机器人自动抓取,非本站原创。 浮游电影网不对本文拥有版权,如有侵犯,请联系邮箱:fuyouu#yandex.com[#换成@]投诉。我们会在15个工作日内删除。 但烦请转载时请标明出处:“本文转载于『浮游电影网』,原文地址:https://www.fuyouu.com/19102.html

评论吧骚年!

发表你的见解   

昵称*

E-mail*(建议输入,以便收到博主回复的提示邮件)

验证码*

您可以使用eMule或eMule Mod(Windows)、aMule(Win、Linux、Mac)等软件下载eD2k链接。。
eMule收藏集(.emulecollection)文件是您选中的所有链接的列表文件。eMule可以直接下载它们。
按住SHIFT键选择可以选中多个选择框。
可用文件名和大小选择器来选择文件。
文件名选择器帮您根据文件名称或后缀来选择文件。不分大小写。
符号使用:
和:空格( )、+
不包含:-
或:|
转义:一对英文引号("");
匹配开头:^
匹配结尾:$
例如:
选中所有名称中包含有“eMule”或“0.49c”字眼,但不包含有“exe”字眼的:emule|0.49c -exe
选中所有名称的开头是“eMule”,结尾是“0.49c”的:^emule 0.49c$
选中所有名称中带有“eMule 0.49c”的(必须是“eMule 0.49c”,中间没有别的字符,不能是“eMule fake 0.49c”),需要转义:"emule 0.49c"
大小选择器帮您根据文件大小选择文件。