当前位置: 首页 >> 海外电影 >> 城里的房间[中文字幕].Une.chambre.en.ville.AKA.A.Room.in.Town.1982.CC.BluRay.1080p.x265.10bit.FLAC.MNHD 8.32GB >> 正文

城里的房间[中文字幕].Une.chambre.en.ville.AKA.A.Room.in.Town.1982.CC.BluRay.1080p.x265.10bit.FLAC.MNHD 8.32GB

2021年12月02日 08:24:41     电影发布:来源于网络     电影分类:海外电影     评论(0)    

城里的房间[中文字幕].Une.chambre.en.ville.AKA.A.Room.in.Town.1982.CC.BluRay.1080p.x265.10bit.FLAC.MNHD 8.32GB 歌舞 剧情片 海外电影  第1张

◎译 名 城里的房间 / 小镇房间 / A Room In Town

◎片 名 Une chambre en ville

◎年 代 1982

◎产 地 法国

◎类 别 剧情 / 歌舞

◎语 言 法语

◎上映日期 1982-10-27

◎IMDb链接 https://www.imdb.com/title/tt0084843/

◎豆瓣评分 6.5/10 (234人评价)

◎豆瓣链接 https://movie.douban.com/subject/2969886/

◎片 长 90 分钟

◎导 演 雅克·德米 Jacques Demy (id:1018333)

◎编 剧 雅克·德米 Jacques Demy (id:1018333)

◎演 员 多米妮克·桑达 Dominique Sanda (id:1032386)

达尼埃尔·达里约 Danielle Darrieux (id:1048285)

米歇尔·皮科利 Michel Piccoli (id:1016618)

理查德·贝里 Richard Berry (id:1055175)

Jacques Revaux Jacques Revaux (id:1147894)

亚恩德代 Yann Dedet (id:1282132)

安娜·盖洛 Anna Gaylor (id:1091620)

让-弗朗索瓦·斯泰弗南 Jean-Fran?ois Stévenin (id:1054457)

Fabienne Guyon Fabienne Guyon (id:1285699)

克莉丝汀·谷兹-瑞娜 Christine Gouze-Rénal (id:1099929)

迈克尔·科伦贝尔 Michel Colombier (id:1019431)

Jean Penzer Jean Penzer (id:1030578)

贝尔纳·埃万 Bernard Evein (id:1017124)

◎标 签 法国 / 雅克·德米 / 歌舞 / JacquesDemy / CC / 1982 / 1980s / 法国电影

◎简 介

The story is set during a workers' strike in Nantes in 1955. Steel worker Fran?ois Guilbaud is one of the strikers, and he rents a room from Margot Langlois, a widow who sympathizes with the strikers although she is herself upper-class. He has a pregnant girlfriend named Violette Pelletier, to whom he becomes less and less attracted, and abandons. When he tries to defend his be...

  1. ##### MediaInfo ######

  2. General

  3. Unique ID : 143468270867095347771324386692144284352 (0x6BEEFBE06D679FEB8190CDFC2F2BC2C0)

  4. Complete name : Une.chambre.en.ville.AKA[email protected]MKVChina.mkv

  5. Format : Matroska

  6. Format version : Version 4

  7. File size : 8.32 GiB

  8. Duration : 1 h 34 min

  9. Overall bit rate mode : Variable

  10. Overall bit rate : 12.6 Mb/s

  11. Movie name : Une chambre en ville AKA A Room in Town 1982 CC BluRay 1080p - FRDS

  12. Encoded date : UTC 2021-11-30 08:38:16

  13. Writing application : mkvmerge v63.0.0 ('Everything') 64-bit

  14. Writing library : libebml v1.4.2 + libmatroska v1.6.4


  15. Video

  16. ID : 1

  17. Format : HEVC

  18. Format/Info : High Efficiency Video Coding

  19. Format profile : Main [email protected]@High

  20. Codec ID : V_MPEGH/ISO/HEVC

  21. Duration : 1 h 34 min

  22. Bit rate : 11.3 Mb/s

  23. Width : 1 800 pixels

  24. Height : 1 080 pixels

  25. Display aspect ratio : 5:3

  26. Frame rate mode : Constant

  27. Frame rate : 23.976 (24000/1001/53354) FPS

  28. Color space : YUV

  29. Chroma subsampling : 4:2:0

  30. Bit depth : 10 bits

  31. Bits/(Pixel*Frame) : 0.243

  32. Stream size : 7.49 GiB (90%)

  33. Writing library : x265 3.2+2-g238998f4b+26:[Windows][GCC 8.3.0][64 bit] Yuuki 10bit+8bit+12bit

  34. Encoding settings : rc=crf / crf=20.5000 / qcomp=0.70 / qpstep=4 / stats-write=0 / stats-read=0 / vbv-maxrate=40000 / vbv-bufsize=40000 / vbv-init=0.9 / crf-max=0.0 / crf-min=0.0 / no-lossless / no-cu-lossless / aq-mode=1 / aq-strength=0.80 / cbqpoffs=-3 / crqpoffs=-3 / ipratio=1.40 / pbratio=1.30 / psy-rd=2.00 / psy-rdoq=3.00 / deblock=-1:-1 / ref=5 / limit-refs=1 / limit-modes / bframes=9 / b-adapt=2 / bframe-bias=0 / b-pyramid / b-intra / weightp / weightb / min-keyint=23 / max-keyint=360 / rc-lookahead=60 / gop-lookahead=0 / NTMzNTQ=uuDQuD2mJt9fsCf / scenecut=40 / radl=0 / max-cu-size=32 / min-cu-size=8 / me=3 / subme=4 / merange=25 / rdoq-level=2 / rd=5 / rdpenalty=1 / dynamic-rd=0.00 / no-rd-refine / ----- / cutree / no-sao / no-rect / no-amp / no-open-gop / wpp / pmode / pme / no-psnr / no-ssim / nr-intra=0 / nr-inter=0 / no-constrained-intra / no-strong-intra-smoothing / max-tu-size=16 / tu-inter-depth=2 / tu-intra-depth=2 / limit-tu=1 / qg-size=8 / qpmax=69 / qpmin=0 / ----- / cpuid=533541111039 / frame-threads=12 / numa-pools=24 / log-level=2 / input-csp=1 / input-res=1800x1080 / interlace=0 / level-idc=0 / high-tier=1 / uhd-bd=0 / no-allow-non-conformance / repeat-headers / no-aud / no-hrd / info / hash=0 / no-temporal-layers / lookahead-slices=0 / no-splice / no-intra-refresh / no-ssim-rd / signhide / no-tskip / max-merge=5 / temporal-mvp / no-hme / no-analyze-src-pics / no-sao-non-deblock / selective-sao=0 / no-early-skip / no-rskip / no-fast-intra / no-tskip-fast / no-splitrd-skip / zone-count=0 / no-strict-cbr / no-rc-grain / no-const-vbv / sar=0 / overscan=0 / videoformat=5 / range=0 / colorprim=1 / transfer=1 / colormatrix=1 / chromaloc=0 / display-window=0 / cll=0,0 / min-luma=0 / max-luma=1023 / log2-max-poc-lsb=8 / vui-timing-info / vui-hrd-info / slices=1 / no-opt-qp-pps / no-opt-ref-list-length-pps / no-multi-pass-opt-rps / scenecut-bias=0.05 / no-opt-cu-delta-qp / no-aq-motion / no-hdr / no-hdr-opt / no-dhdr10-opt / no-idr-recovery-sei / analysis-reuse-level=5 / scale-factor=0 / refine-intra=0 / refine-inter=0 / refine-mv=1 / refine-ctu-distortion=0 / no-limit-sao / ctu-info=0 / no-lowpass-dct / refine-analysis-type=0 / copy-pic=1 / max-ausize-factor=1.0 / no-dynamic-refine / no-single-sei / no-hevc-aq / no-svt / no-field / qp-adaptation-range=1.00

  35. Default : Yes

  36. Forced : No

  37. Color range : Limited

  38. Color primaries : BT.709

  39. Transfer characteristics : BT.709

  40. Matrix coefficients : BT.709


  41. Audio

  42. ID : 2

  43. Format : FLAC

  44. Format/Info : Free Lossless Audio Codec

  45. Codec ID : A_FLAC

  46. Duration : 1 h 34 min

  47. Bit rate mode : Variable

  48. Bit rate : 1 223 kb/s

  49. Channel(s) : 2 channels

  50. Channel layout : L R

  51. Sampling rate : 48.0 kHz

  52. Frame rate : 11.719 FPS (4096 SPF)

  53. Bit depth : 24 bits

  54. Compression mode : Lossless

  55. Stream size : 826 MiB (10%)

  56. Writing library : libFLAC 1.2.1 (UTC 2007-09-17)

  57. Language : French

  58. Default : Yes

  59. Forced : No


  60. Text #1

  61. ID : 3

  62. Format : PGS

  63. Muxing mode : zlib

  64. Codec ID : S_HDMV/PGS

  65. Codec ID/Info : Picture based subtitle format used on BDs/HD-DVDs

  66. Duration : 1 h 28 min

  67. Bit rate : 41.3 kb/s

  68. Count of elements : 2266

  69. Stream size : 26.0 MiB (0%)

  70. Language : English

  71. Default : No

  72. Forced : No


  73. Text #2

  74. ID : 4

  75. Format : PGS

  76. Muxing mode : zlib

  77. Codec ID : S_HDMV/PGS

  78. Codec ID/Info : Picture based subtitle format used on BDs/HD-DVDs

  79. Duration : 1 h 32 min

  80. Bit rate : 27.6 kb/s

  81. Count of elements : 1818

  82. Stream size : 18.2 MiB (0%)

  83. Language : Chinese

  84. Default : Yes

  85. Forced : No


  86. Text #3

  87. ID : 5

  88. Format : PGS

  89. Muxing mode : zlib

  90. Codec ID : S_HDMV/PGS

  91. Codec ID/Info : Picture based subtitle format used on BDs/HD-DVDs

  92. Duration : 1 h 32 min

  93. Bit rate : 28.3 kb/s

  94. Count of elements : 1818

  95. Stream size : 18.6 MiB (0%)

  96. Language : Chinese

  97. Default : Yes

  98. Forced : No


  99. Menu

  100. 00:00:00.000 : en:第 01 章

  101. 00:05:43.885 : en:第 02 章

  102. 00:12:13.941 : en:第 03 章

  103. 00:22:18.253 : en:第 04 章

  104. 00:27:50.919 : en:第 05 章

  105. 00:33:26.879 : en:第 06 章

  106. 00:40:22.461 : en:第 07 章

  107. 00:47:12.120 : en:第 08 章

  108. 00:51:23.121 : en:第 09 章

  109. 01:01:42.865 : en:第 10 章

  110. 01:05:03.774 : en:第 11 章

  111. 01:09:15.317 : en:第 12 章

  112. 01:13:11.428 : en:第 13 章

  113. 01:21:44.399 : en:第 14 章

  114. 01:28:02.318 : en:第 15 章




复制代码



文件下载


除非特别注明,本文『城里的房间[中文字幕].Une.chambre.en.ville.AKA.A.Room.in.Town.1982.CC.BluRay.1080p.x265.10bit.FLAC.MNHD 8.32GB』来源于互联网机器人自动抓取,非本站原创。 浮游电影网不对本文拥有版权,如有侵犯,请联系邮箱:fuyouu#yandex.com[#换成@]投诉。我们会在15个工作日内删除。 但烦请转载时请标明出处:“本文转载于『浮游电影网』,原文地址:https://www.fuyouu.com/19100.html

评论吧骚年!

发表你的见解   

昵称*

E-mail*(建议输入,以便收到博主回复的提示邮件)

验证码*

您可以使用eMule或eMule Mod(Windows)、aMule(Win、Linux、Mac)等软件下载eD2k链接。。
eMule收藏集(.emulecollection)文件是您选中的所有链接的列表文件。eMule可以直接下载它们。
按住SHIFT键选择可以选中多个选择框。
可用文件名和大小选择器来选择文件。
文件名选择器帮您根据文件名称或后缀来选择文件。不分大小写。
符号使用:
和:空格( )、+
不包含:-
或:|
转义:一对英文引号("");
匹配开头:^
匹配结尾:$
例如:
选中所有名称中包含有“eMule”或“0.49c”字眼,但不包含有“exe”字眼的:emule|0.49c -exe
选中所有名称的开头是“eMule”,结尾是“0.49c”的:^emule 0.49c$
选中所有名称中带有“eMule 0.49c”的(必须是“eMule 0.49c”,中间没有别的字符,不能是“eMule fake 0.49c”),需要转义:"emule 0.49c"
大小选择器帮您根据文件大小选择文件。