当前位置: 首页 >> 港台电影 >> 新碧血剑[国语配音/中文字幕].The.Sword.Stained.with.Royal.Blood.1993.HDTV.1080i.H.264.MPEG.Audio.2.0 6.13GB >> 正文

新碧血剑[国语配音/中文字幕].The.Sword.Stained.with.Royal.Blood.1993.HDTV.1080i.H.264.MPEG.Audio.2.0 6.13GB

2021年11月30日 14:12:16     电影发布:来源于网络     电影分类:港台电影     评论(0)    

新碧血剑[国语配音/中文字幕].The.Sword.Stained.with.Royal.Blood.1993.HDTV.1080i.H.264.MPEG.Audio.2.0 6.13GB 武侠片 古装片 动作片 港台电影  第1张

◎译 名 新碧血剑 / The Sword Stained With Royal Blood

◎片 名 新碧血劍

◎年 代 1993

◎产 地 中国香港

◎类 别 动作 / 武侠 / 古装

◎语 言 粤语

◎上映日期 1993-11-25(中国香港)

◎IMDb链接 https://www.imdb.com/title/tt0108613/

◎豆瓣评分 6.9/10 (16392人评价)

◎豆瓣链接 https://movie.douban.com/subject/1305837/

◎片 长 96 分钟

◎导 演 张海靖 Hoi-Ching Cheung (id:1320828)

◎编 剧 张海靖 Hoi-Ching Cheung (id:1320828)

韦辛 Hsin Wei (id:1337160)

金庸 Louis Cha (id:1019677)

◎演 员 元彪 Biao Yuen (id:1163752)

张敏 Sharla Cheung (id:1005297)

李修贤 Danny Lee (id:1025452)

吴孟达 Man Tat Ng (id:1016771)

袁咏仪 Anita Yuen (id:1050693)

叶全真 Elsie Yeh (id:1051995)

李美凤 Elizabeth Lee (id:1051304)

徐锦江 Elvis Tsui (id:1028828)

史宝华 Bo-Wa Shut (id:1411137)

午马 Wu Ma (id:1054282)

关顺田 Shuntian Guan (id:1415810)

太保 Po Tai (id:1312993)

陈龙 Peter Chan Lung (id:1321791)

吴元俊 Yuan-chun Wu (id:1345411)

龙方 Fong Lung (id:1290470)

沈阳 Shum Sam (id:1418219)

雷颂德 Mark Lui (id:1052286)

潘德业 Stephen Poon Tak-Yip (id:1339954)

刘鸿泉 Hung Chuen Lau (id:1318709)

梁志兴 Chi-Hing Leung (id:1289860)

元武 Wu Yuan (id:1344878)

袁振洋 Brandy Yuen (id:1328286)

◎标 签 武侠 / 香港 / 动作 / 1993 / 电影 / 古装 / 中国 / 经典

◎简 介

明朝末年奸臣当道,朝廷的忠义大将因受陷害被抄家,仅年幼的儿子袁承志(元彪 饰)逃出。十六年后,袁承志长大成人,无意中得到一份武功秘籍和藏宝图,开始了寻宝之路。期间,袁承志目睹明朝官匪勾结,百姓流离失所,又受父亲的影响,一直想寻求强国之路。旅途中,袁承志遇到志同道合的富商多尔衮,一路结伴同行。期间遭遇绑匪,被卷入江湖帮派与五毒教的恩怨之中。最终袁承志靠坦荡胸襟和高超的武艺化解了恩怨。为了削弱满清对明朝的威胁,袁承志决定刺杀皇太极,却发现多尔衮竟然是满清亲王。最后,根据藏宝图的记载,袁承志终于找到宝藏并献给了闯王,寄望闯王能重整明朝河山。可是,明朝皇帝胸无大志,袁承志又备受闯王手下排挤,满清势力日渐壮大。袁承志深感壮志难酬,心灰意冷之下,只得远走海外。

  1. ##### MediaInfo ######

  2. General

  3. ID : 1 (0x1)

  4. Complete name : The Sword Stained with Royal Blood 1993 HDTV 1080i H.264 MPEG Audio [email protected]

  5. Format : MPEG-TS

  6. File size : 6.13 GiB

  7. Duration : 1 h 37 min

  8. Overall bit rate mode : Variable

  9. Overall bit rate : 8 968 kb/s

  10. Maximum Overall bit rate : 35.5 Mb/s


  11. Video

  12. ID : 4113 (0x1011)

  13. Menu ID : 1 (0x1)

  14. Format : AVC

  15. Format/Info : Advanced Video Codec

  16. Format profile : [email protected]

  17. Format settings : CABAC / 2 Ref Frames

  18. Format settings, CABAC : Yes

  19. Format settings, Reference frames : 2 frames

  20. Codec ID : 27

  21. Duration : 1 h 37 min

  22. Bit rate mode : Variable

  23. Bit rate : 8 137 kb/s

  24. Maximum bit rate : 15.0 Mb/s

  25. Width : 1 920 pixels

  26. Height : 1 080 pixels

  27. Display aspect ratio : 16:9

  28. Frame rate : 25.000 FPS

  29. Standard : Component

  30. Color space : YUV

  31. Chroma subsampling : 4:2:0

  32. Bit depth : 8 bits

  33. Scan type : MBAFF

  34. Scan type, store method : Interleaved fields

  35. Scan order : Top Field First

  36. Bits/(Pixel*Frame) : 0.157

  37. Stream size : 5.56 GiB (91%)

  38. Color range : Limited


  39. Audio

  40. ID : 4352 (0x1100)

  41. Menu ID : 1 (0x1)

  42. Format : MPEG Audio

  43. Format version : Version 1

  44. Format profile : Layer 2

  45. Codec ID : 4

  46. Duration : 1 h 37 min

  47. Bit rate mode : Constant

  48. Bit rate : 384 kb/s

  49. Channel(s) : 2 channels

  50. Sampling rate : 48.0 kHz

  51. Frame rate : 41.667 FPS (1152 SPF)

  52. Compression mode : Lossy

  53. Stream size : 269 MiB (4%)




复制代码



文件下载


除非特别注明,本文『新碧血剑[国语配音/中文字幕].The.Sword.Stained.with.Royal.Blood.1993.HDTV.1080i.H.264.MPEG.Audio.2.0 6.13GB』来源于互联网机器人自动抓取,非本站原创。 浮游电影网不对本文拥有版权,如有侵犯,请联系邮箱:fuyouu#yandex.com[#换成@]投诉。我们会在15个工作日内删除。 但烦请转载时请标明出处:“本文转载于『浮游电影网』,原文地址:https://www.fuyouu.com/19080.html

评论吧骚年!

发表你的见解   

昵称*

E-mail*(建议输入,以便收到博主回复的提示邮件)

验证码*

您可以使用eMule或eMule Mod(Windows)、aMule(Win、Linux、Mac)等软件下载eD2k链接。。
eMule收藏集(.emulecollection)文件是您选中的所有链接的列表文件。eMule可以直接下载它们。
按住SHIFT键选择可以选中多个选择框。
可用文件名和大小选择器来选择文件。
文件名选择器帮您根据文件名称或后缀来选择文件。不分大小写。
符号使用:
和:空格( )、+
不包含:-
或:|
转义:一对英文引号("");
匹配开头:^
匹配结尾:$
例如:
选中所有名称中包含有“eMule”或“0.49c”字眼,但不包含有“exe”字眼的:emule|0.49c -exe
选中所有名称的开头是“eMule”,结尾是“0.49c”的:^emule 0.49c$
选中所有名称中带有“eMule 0.49c”的(必须是“eMule 0.49c”,中间没有别的字符,不能是“eMule fake 0.49c”),需要转义:"emule 0.49c"
大小选择器帮您根据文件大小选择文件。