当前位置: 首页 >> 欧美电影 >> 鲨海[中文字幕].47.Meters.Down.2017.2160p.WEB-DL.H265.DD2.0-btbt9527.com 18.42GB >> 正文

鲨海[中文字幕].47.Meters.Down.2017.2160p.WEB-DL.H265.DD2.0-btbt9527.com 18.42GB

2021年11月30日 14:09:03     电影发布:来源于网络     电影分类:欧美电影     评论(0)    

鲨海[中文字幕].47.Meters.Down.2017.2160p.WEB DL.H265.DD2.0 btbt9527.com 18.42GB 冒险片 惊悚片 欧美电影  第1张

◎译 名 鲨海 / 深海逃生 / 深海鲨机(台) / 鲨海47米(港) / In the Deep

◎片 名 47 Meters Down

◎年 代 2017

◎产 地 英国

◎类 别 惊悚 / 冒险

◎语 言 英语 / 西班牙语

◎上映日期 2017-12-08(中国大陆) / 2017-06-16(美国)

◎IMDb链接 https://www.imdb.com/title/tt2932536/

◎豆瓣评分 5.6/10 (24384人评价)

◎豆瓣链接 https://movie.douban.com/subject/26845362/

◎片 长 89分钟

◎导 演 约翰内斯·罗伯茨 Johannes Roberts (id:1019388)

◎编 剧 约翰内斯·罗伯茨 Johannes Roberts (id:1019388)

欧内斯特·里埃拉 Ernest Riera (id:1355031)

◎演 员 曼迪·摩尔 Mandy Moore (id:1000013)

克莱尔·霍尔特 Claire Holt (id:1232340)

克里斯·约翰逊 Chris Johnson (id:1050080)

雅尼·吉尔曼 Yani Gellman (id:1049789)

圣地亚哥·瑟甘拉 Santiago Segura (id:1376094)

马修·莫迪恩 Matthew Modine (id:1002720)

◎标 签 惊悚 / 鲨鱼 / 深海 / 深海恐惧症 / 灾难 / 恐怖 / 逃生 / 美国

◎简 介

Lisa(曼迪·摩尔 Mandy Moore 饰)和Kate(克莱尔·霍尔特 Claire Holt 饰)两姐妹在墨西哥海岸度假,她们在海底观鲨铁笼中潜水观赏鲨鱼时,牵连铁笼的绳子突然断裂,观鲨笼掉落到47米深的海底。由于所存氧气不多,她们只有一个小时的时间逃脱牢笼回到水面。而此时,大白鲨也在她们周围游弋着。47米深的海底一片漆黑,只能通过手电筒观察铁笼外面的情况。水面上工作人员的声音时有时无,救援队也迟迟不见踪影,姐妹俩都非常害怕。面对仅剩的氧气,她们必须马上做出选择才有一线生机。为了避开鲨鱼活着游出水面,姐妹两人与鲨鱼之间展开了一场斗智斗勇扣人心弦的生死较量……

  1. ##### MediaInfo ######

  2. General

  3. Complete name : 鲨海[email protected]

  4. Format : MPEG-4

  5. Format profile : Base Media

  6. Codec ID : isom (isom/iso2/mp41)

  7. File size : 18.4 GiB

  8. Duration : 1 h 28 min

  9. Overall bit rate : 29.6 Mb/s

  10. Writing application : OurTV Multimedia Platform


  11. Video

  12. ID : 1

  13. Format : HEVC

  14. Format/Info : High Efficiency Video Coding

  15. Format profile : [email protected]@High

  16. Codec ID : hev1

  17. Codec ID/Info : High Efficiency Video Coding

  18. Duration : 1 h 28 min

  19. Bit rate : 29.2 Mb/s

  20. Width : 3 840 pixels

  21. Height : 2 160 pixels

  22. Display aspect ratio : 16:9

  23. Frame rate mode : Constant

  24. Frame rate : 25.000 FPS

  25. Color space : YUV

  26. Chroma subsampling : 4:2:0

  27. Bit depth : 8 bits

  28. Bits/(Pixel*Frame) : 0.141

  29. Stream size : 18.2 GiB (99%)

  30. Writing library : PONTUS-series

  31. Color range : Limited

  32. Codec configuration box : hvcC


  33. Audio

  34. ID : 2

  35. Format : AC-3

  36. Format/Info : Audio Coding 3

  37. Commercial name : Dolby Digital

  38. Codec ID : ac-3

  39. Duration : 1 h 28 min

  40. Bit rate mode : Constant

  41. Bit rate : 384 kb/s

  42. Channel(s) : 2 channels

  43. Channel layout : L R

  44. Sampling rate : 48.0 kHz

  45. Frame rate : 31.250 FPS (1536 SPF)

  46. Compression mode : Lossy

  47. Stream size : 244 MiB (1%)

  48. Service kind : Complete Main

  49. Default : Yes

  50. Alternate group : 1




复制代码



文件下载


除非特别注明,本文『鲨海[中文字幕].47.Meters.Down.2017.2160p.WEB-DL.H265.DD2.0-btbt9527.com 18.42GB』来源于互联网机器人自动抓取,非本站原创。 浮游电影网不对本文拥有版权,如有侵犯,请联系邮箱:fuyouu#yandex.com[#换成@]投诉。我们会在15个工作日内删除。 但烦请转载时请标明出处:“本文转载于『浮游电影网』,原文地址:https://www.fuyouu.com/19078.html

评论吧骚年!

发表你的见解   

昵称*

E-mail*(建议输入,以便收到博主回复的提示邮件)

验证码*

您可以使用eMule或eMule Mod(Windows)、aMule(Win、Linux、Mac)等软件下载eD2k链接。。
eMule收藏集(.emulecollection)文件是您选中的所有链接的列表文件。eMule可以直接下载它们。
按住SHIFT键选择可以选中多个选择框。
可用文件名和大小选择器来选择文件。
文件名选择器帮您根据文件名称或后缀来选择文件。不分大小写。
符号使用:
和:空格( )、+
不包含:-
或:|
转义:一对英文引号("");
匹配开头:^
匹配结尾:$
例如:
选中所有名称中包含有“eMule”或“0.49c”字眼,但不包含有“exe”字眼的:emule|0.49c -exe
选中所有名称的开头是“eMule”,结尾是“0.49c”的:^emule 0.49c$
选中所有名称中带有“eMule 0.49c”的(必须是“eMule 0.49c”,中间没有别的字符,不能是“eMule fake 0.49c”),需要转义:"emule 0.49c"
大小选择器帮您根据文件大小选择文件。