当前位置: 首页 >> 国产电影 >> 小医仙[国语配音/中文字幕].A.Magic.Doctor.2021.2160p.WEB-DL.H265.DDP2.0-btbt9527.com 1.26GB >> 正文

小医仙[国语配音/中文字幕].A.Magic.Doctor.2021.2160p.WEB-DL.H265.DDP2.0-btbt9527.com 1.26GB

2021年11月30日 14:04:35     电影发布:来源于网络     电影分类:国产电影     评论(0)    

小医仙[国语配音/中文字幕].A.Magic.Doctor.2021.2160p.WEB DL.H265.DDP2.0 btbt9527.com 1.26GB 奇幻片 古装片 爱情片 国产电影  第1张

◎译 名 小医仙

◎年 代 2021

◎产 地 中国大陆

◎类 别 爱情 / 奇幻 / 古装

◎语 言 汉语普通话

◎上映日期 2021-11-29(中国大陆)

◎IMDb链接 https://www.imdb.com/title//

◎豆瓣链接 https://movie.douban.com/subject/35625288/

◎片 长 73分钟

◎导 演 张作峰 Zuofeng Zhang (id:1463010)

◎编 剧 谭语蕊 Yurui Tan (id:1429016)

秦文 Wen Qin (id:1439303)

陈敏欢 (id:1463012)

◎演 员 刘李优优 Youyou Liuli (id:1360031)

吴一逊 (id:1438362)

杨媛之 (id:1459624)

续卿锐 Qingrui Xu (id:1459854)

刘乃艺 Naiyi Liu (id:1317033)

宋松霖 (id:1463013)

优优 (id:1459858)

崔志彬 (id:1463014)

◎标 签 大陆 / 剧情 / 2021

◎简 介

月黑风高的树林中,秦之艾正在被迫进行一场冥婚,未婚夫孟宗竹得知真相不顾一切追踪而来......突然,夜空中一道白光闪过,一切都静止了...原来赫巴星人赫巴女来到了地球需要完成她的任务,无奈艾草石能量耗尽,只能附到秦之艾的身上,就这样赫巴女秦之艾深入皇城与一众奸臣斗智斗勇,与孟宗竹里应外合救出秦氏夫妇,却发现了皇城内太子另一个更大的阴谋......

  1. ##### MediaInfo ######

  2. General

  3. Unique ID : 280846710448107140033748641266319019510 (0xD3491BE3B8100FC59CF308C40588CDF6)

  4. Complete name : 小医仙[email protected]

  5. Format : Matroska

  6. Format version : Version 4

  7. File size : 1.26 GiB

  8. Duration : 1 h 13 min

  9. Overall bit rate : 2 478 kb/s

  10. Encoded date : UTC 2021-11-29 03:03:28

  11. Writing application : mkvmerge v56.1.0 ('My Friend') 64-bit

  12. Writing library : libebml v1.4.2 + libmatroska v1.6.4


  13. Video

  14. ID : 2

  15. Format : HEVC

  16. Format/Info : High Efficiency Video Coding

  17. Format profile : [email protected]@Main

  18. Codec ID : V_MPEGH/ISO/HEVC

  19. Duration : 1 h 13 min

  20. Bit rate : 2 221 kb/s

  21. Width : 3 840 pixels

  22. Height : 1 608 pixels

  23. Display aspect ratio : 2.40:1

  24. Frame rate mode : Constant

  25. Frame rate : 25.000 FPS

  26. Color space : YUV

  27. Chroma subsampling : 4:2:0

  28. Bit depth : 8 bits

  29. Bits/(Pixel*Frame) : 0.014

  30. Stream size : 1.13 GiB (90%)

  31. Default : Yes

  32. Forced : No


  33. Audio

  34. ID : 1

  35. Format : E-AC-3

  36. Format/Info : Enhanced AC-3

  37. Commercial name : Dolby Digital Plus

  38. Codec ID : A_EAC3

  39. Duration : 1 h 13 min

  40. Bit rate mode : Constant

  41. Bit rate : 256 kb/s

  42. Channel(s) : 2 channels

  43. Channel layout : L R

  44. Sampling rate : 48.0 kHz

  45. Frame rate : 31.250 FPS (1536 SPF)

  46. Compression mode : Lossy

  47. Stream size : 134 MiB (10%)

  48. Service kind : Complete Main

  49. Default : Yes

  50. Forced : No




复制代码



文件下载


除非特别注明,本文『小医仙[国语配音/中文字幕].A.Magic.Doctor.2021.2160p.WEB-DL.H265.DDP2.0-btbt9527.com 1.26GB』来源于互联网机器人自动抓取,非本站原创。 浮游电影网不对本文拥有版权,如有侵犯,请联系邮箱:fuyouu#yandex.com[#换成@]投诉。我们会在15个工作日内删除。 但烦请转载时请标明出处:“本文转载于『浮游电影网』,原文地址:https://www.fuyouu.com/19076.html

评论吧骚年!

发表你的见解   

昵称*

E-mail*(建议输入,以便收到博主回复的提示邮件)

验证码*

您可以使用eMule或eMule Mod(Windows)、aMule(Win、Linux、Mac)等软件下载eD2k链接。。
eMule收藏集(.emulecollection)文件是您选中的所有链接的列表文件。eMule可以直接下载它们。
按住SHIFT键选择可以选中多个选择框。
可用文件名和大小选择器来选择文件。
文件名选择器帮您根据文件名称或后缀来选择文件。不分大小写。
符号使用:
和:空格( )、+
不包含:-
或:|
转义:一对英文引号("");
匹配开头:^
匹配结尾:$
例如:
选中所有名称中包含有“eMule”或“0.49c”字眼,但不包含有“exe”字眼的:emule|0.49c -exe
选中所有名称的开头是“eMule”,结尾是“0.49c”的:^emule 0.49c$
选中所有名称中带有“eMule 0.49c”的(必须是“eMule 0.49c”,中间没有别的字符,不能是“eMule fake 0.49c”),需要转义:"emule 0.49c"
大小选择器帮您根据文件大小选择文件。