当前位置: 首页 >> 动画电影 >> 马茹娜的非凡旅程[中文字幕].Marona's.Fantastic.Tale.2019.1080p.BluRay.DTS.x265-10bit-btbt9527.com 7.74GB >> 正文

马茹娜的非凡旅程[中文字幕].Marona's.Fantastic.Tale.2019.1080p.BluRay.DTS.x265-10bit-btbt9527.com 7.74GB

2021年11月30日 13:58:44     电影发布:来源于网络     电影分类:动画电影     评论(0)    

马茹娜的非凡旅程[中文字幕].Maronas.Fantastic.Tale.2019.1080p.BluRay.DTS.x265 10bit btbt9527.com 7.74GB 动画片 动画电影  第1张

◎译 名 马茹娜的非凡旅程 / 小狗九的三宅一生(港) / 汪星人的奇幻漂流(台) / The Extraordinary Voyage of Marona / The Fantastic Voyage of Marona / Marona's Fantastic Tale / Marona

◎片 名 L'extraordinaire voyage de Marona

◎年 代 2019

◎产 地 法国 / 罗马尼亚 / 比利时

◎类 别 动画

◎语 言 法语

◎上映日期 2019-06-10(法国)

◎IMDb链接 https://www.imdb.com/title/tt6785292/

◎豆瓣评分 8.4/10 (5276人评价)

◎豆瓣链接 https://movie.douban.com/subject/33412938/

◎片 长 92分钟

◎导 演 安卡·达米安 Anca Damian (id:1281753)

◎编 剧 Anghel Damian Anghel Damian (id:1453486)

安卡·达米安 Anca Damian (id:1281753)

◎演 员 丽兹·布罗谢 Lizzie Brocheré (id:1000800)

布鲁诺·萨拉曼 Bruno Salomone (id:1146937)

蒂埃里·汉西斯 Thierry Hancisse (id:1098173)

娜塔莉·布伏 Nathalie Boutefeu (id:1321905)

奥林匹娅·梅林特 Olimpia Melinte (id:1338866)

夜道雪 Yuki Yomichi (id:1458476)

◎标 签 动画 / 法国 / 文艺 / 狗 / 法国电影 / 电影 / 法语 / 2019

◎简 介

毛毛、莎哈、安娜,这只黑白相间的米克斯小狗在不同的屋檐下,有过不同的名字,不变的是它对主人无邪的忠实,热切的盼望,以及无私的体贴。陪伴怀才不遇的特技演员筑梦踏实,替家计沈重的苦力工人卸除辛劳,伴随纯真可爱的单亲女孩共同成长;它享受过溺爱的甜蜜,也体会过现实的苦涩。在小小生命的终点,它将如何回望这一切?

罗马尼亚导演安卡达米安,以自在驾驭多种动画技法和作画媒材闻名,这次携手时尚品牌LV力邀合作的比利时新锐漫画家布雷希特艾文斯,从小狗的主观视角出发,运用鲜活的对比色彩及灵动的抽象线条,在二维基础上挥洒出令人惊艳的三度空间视觉效果,绚丽而深情地演绎,狗儿世界中朴实无华的乐天与思愁。

「我崇信情绪的复杂,笑中带泪绝对是比哭泣更强烈的情绪。」─ 安卡·达米安

◎获奖情况 (共2项)

第32届欧洲电影奖 (2019)

最佳动画片(提名)

第29届安锡国际动画节 (2019)

长篇动画单元 长片水晶奖(提名)

└──安卡·达米安 (id:1281753)

  1. ##### MediaInfo ######

  2. General

  3. Unique ID : 57290061773903083215348819502647191048 (0x2B19AA1FDBA9F299C4B85856C3DFA608)

  4. Complete name : Marona'[email protected].mkv

  5. Format : Matroska

  6. Format version : Version 4

  7. File size : 7.74 GiB

  8. Duration : 1 h 31 min

  9. Overall bit rate : 12.0 Mb/s

  10. Movie name : Marona's Fantastic Tale 2019 1080p BluRay DTS [email protected]

  11. Encoded date : UTC 2021-11-27 04:56:41

  12. Writing application : mkvmerge v38.0.0 ('The Silent Type') 64-bit

  13. Writing library : libebml v1.3.9 + libmatroska v1.5.2


  14. Video

  15. ID : 1

  16. Format : HEVC

  17. Format/Info : High Efficiency Video Coding

  18. Format profile : Main [email protected]@High

  19. Codec ID : V_MPEGH/ISO/HEVC

  20. Duration : 1 h 31 min

  21. Bit rate : 10.5 Mb/s

  22. Width : 1 920 pixels

  23. Height : 1 040 pixels

  24. Display aspect ratio : 1.85:1

  25. Frame rate mode : Constant

  26. Frame rate : 24.000 FPS

  27. Color space : YUV

  28. Chroma subsampling : 4:2:0

  29. Bit depth : 10 bits

  30. Bits/(Pixel*Frame) : 0.219

  31. Stream size : 6.75 GiB (87%)

  32. Title : @HDSky

  33. Writing library : x265 - H.265/HEVC codec

  34. Default : Yes

  35. Forced : No


  36. Audio

  37. ID : 2

  38. Format : DTS

  39. Format/Info : Digital Theater Systems

  40. Codec ID : A_DTS

  41. Duration : 1 h 31 min

  42. Bit rate mode : Constant

  43. Bit rate : 1 509 kb/s

  44. Channel(s) : 6 channels

  45. Channel layout : C L R Ls Rs LFE

  46. Sampling rate : 48.0 kHz

  47. Frame rate : 93.750 FPS (512 SPF)

  48. Bit depth : 24 bits

  49. Compression mode : Lossy

  50. Stream size : 993 MiB (13%)

  51. Title : French

  52. Language : French

  53. Default : Yes

  54. Forced : No


  55. Text #1

  56. ID : 3

  57. Format : PGS

  58. Muxing mode : zlib

  59. Codec ID : S_HDMV/PGS

  60. Codec ID/Info : Picture based subtitle format used on BDs/HD-DVDs

  61. Duration : 1 h 25 min

  62. Bit rate : 20.8 kb/s

  63. Count of elements : 1504

  64. Stream size : 12.7 MiB (0%)

  65. Title : CHS

  66. Language : Chinese

  67. Default : Yes

  68. Forced : No


  69. Text #2

  70. ID : 4

  71. Format : PGS

  72. Muxing mode : zlib

  73. Codec ID : S_HDMV/PGS

  74. Codec ID/Info : Picture based subtitle format used on BDs/HD-DVDs

  75. Duration : 1 h 25 min

  76. Bit rate : 21.2 kb/s

  77. Count of elements : 1504

  78. Stream size : 13.0 MiB (0%)

  79. Title : CHT

  80. Language : Chinese

  81. Default : No

  82. Forced : No


  83. Menu

  84. 00:00:00.000 : en:Chapter 01

  85. 00:05:05.042 : en:Chapter 02

  86. 00:10:25.875 : en:Chapter 03

  87. 00:14:08.958 : en:Chapter 04

  88. 00:19:53.292 : en:Chapter 05

  89. 00:25:53.000 : en:Chapter 06

  90. 00:30:30.708 : en:Chapter 07

  91. 00:34:54.958 : en:Chapter 08

  92. 00:39:56.583 : en:Chapter 09

  93. 00:44:18.083 : en:Chapter 10

  94. 00:50:55.042 : en:Chapter 11

  95. 00:54:50.875 : en:Chapter 12

  96. 00:59:54.250 : en:Chapter 13

  97. 01:05:47.458 : en:Chapter 14

  98. 01:09:22.625 : en:Chapter 15

  99. 01:15:15.250 : en:Chapter 16

  100. 01:20:07.708 : en:Chapter 17

  101. 01:28:01.167 : en:Chapter 18




复制代码



文件下载


除非特别注明,本文『马茹娜的非凡旅程[中文字幕].Marona's.Fantastic.Tale.2019.1080p.BluRay.DTS.x265-10bit-btbt9527.com 7.74GB』来源于互联网机器人自动抓取,非本站原创。 浮游电影网不对本文拥有版权,如有侵犯,请联系邮箱:fuyouu#yandex.com[#换成@]投诉。我们会在15个工作日内删除。 但烦请转载时请标明出处:“本文转载于『浮游电影网』,原文地址:https://www.fuyouu.com/19072.html

评论吧骚年!

发表你的见解   

昵称*

E-mail*(建议输入,以便收到博主回复的提示邮件)

验证码*

您可以使用eMule或eMule Mod(Windows)、aMule(Win、Linux、Mac)等软件下载eD2k链接。。
eMule收藏集(.emulecollection)文件是您选中的所有链接的列表文件。eMule可以直接下载它们。
按住SHIFT键选择可以选中多个选择框。
可用文件名和大小选择器来选择文件。
文件名选择器帮您根据文件名称或后缀来选择文件。不分大小写。
符号使用:
和:空格( )、+
不包含:-
或:|
转义:一对英文引号("");
匹配开头:^
匹配结尾:$
例如:
选中所有名称中包含有“eMule”或“0.49c”字眼,但不包含有“exe”字眼的:emule|0.49c -exe
选中所有名称的开头是“eMule”,结尾是“0.49c”的:^emule 0.49c$
选中所有名称中带有“eMule 0.49c”的(必须是“eMule 0.49c”,中间没有别的字符,不能是“eMule fake 0.49c”),需要转义:"emule 0.49c"
大小选择器帮您根据文件大小选择文件。