当前位置: 首页 >> 欧美电影 >> 灰姑娘[中文字幕].Cinderella.2021.1080p.AMZN.WEB-DL.DDP5.1.x264-btbt9527.com 13.36GB >> 正文

灰姑娘[中文字幕].Cinderella.2021.1080p.AMZN.WEB-DL.DDP5.1.x264-btbt9527.com 13.36GB

2021年11月30日 13:56:22     电影发布:来源于网络     电影分类:欧美电影     评论(0)    

灰姑娘[中文字幕].Cinderella.2021.1080p.AMZN.WEB DL.DDP5.1.x264 btbt9527.com 13.36GB 歌舞 奇幻片 爱情片 喜剧片 欧美电影  第1张

◎译 名 灰姑娘

◎片 名 Cinderella

◎年 代 2021

◎产 地 英国 / 美国

◎类 别 喜剧 / 爱情 / 歌舞 / 奇幻

◎语 言 英语

◎上映日期 2021-09-03(美国网络)

◎IMDb链接 https://www.imdb.com/title/tt10155932/

◎豆瓣评分 5.3/10 (3331人评价)

◎豆瓣链接 https://movie.douban.com/subject/33404941/

◎片 长 113分钟

◎导 演 凯·加农 Kay Cannon (id:1324071)

◎编 剧 凯·加农 Kay Cannon (id:1324071)

詹姆斯·柯登 James Corden (id:1017966)

◎演 员 卡米拉·卡贝欧 Camila Cabello (id:1411733)

尼古拉斯·加利齐纳 Nicholas Galitzine (id:1365256)

伊迪娜·门泽尔 Idina Menzel (id:1116746)

皮尔斯·布鲁斯南 Pierce Brosnan (id:1031219)

明妮·德里弗 Minnie Driver (id:1004602)

比利·波特 Billy Porter (id:1050593)

麦迪·贝里欧 Maddie Baillio (id:1406688)

夏洛特·斯宾塞 Charlotte Spencer (id:1343846)

詹姆斯·柯登 James Corden (id:1017966)

Tallulah Greive Tallulah Greive (id:1450691)

James Acaster James Acaster (id:1388648)

罗梅什·兰加纳坦 Romesh Ranganathan (id:1353444)

Rob Beckett Rob Beckett (id:1388501)

本·贝利·史密斯 Ben Bailey Smith (id:1444755)

弗拉·菲 Fra Fee (id:1429389)

Beverley Knight Beverley Knight (id:1174350)

Natasha Patel Natasha Patel (id:1450701)

妮基塔·查达哈 Nikkita Chadha (id:1449234)

约翰·艾伦·罗伯茨 John Alan Roberts (id:1442711)

Danny Salomon (id:1244290)

艾伦·米罗伊尼克 Ellen Mirojnick (id:1010099)

◎标 签 歌舞 / 音乐 / 美国 / 2021 / 喜剧 / 爱情 / 奇幻 / 英国

◎简 介

根据消息指出,卡妹版本的《灰姑娘》是一部具有现代性和女权主义的新式公主电影,据说加入了Me Too运动的隐喻内容,表达女性的自主和自我,也同时将充满性别平等的意义。

  1. ##### MediaInfo ######

  2. General

  3. Unique ID : 19352642212245391732915608855998127176 (0xE8F2EEDA9DCB947E192AB90A4485C48)

  4. Complete name : [email protected]

  5. Format : Matroska

  6. Format version : Version 4

  7. File size : 13.4 GiB

  8. Duration : 1 h 52 min

  9. Overall bit rate : 17.0 Mb/s

  10. Encoded date : UTC 2021-11-28 09:52:59

  11. Writing application : mkvmerge v63.0.0 ('Everything') 64-bit

  12. Writing library : libebml v1.4.2 + libmatroska v1.6.4


  13. Video

  14. ID : 1

  15. Format : AVC

  16. Format/Info : Advanced Video Codec

  17. Format profile : [email protected]

  18. Format settings : CABAC / 4 Ref Frames

  19. Format settings, CABAC : Yes

  20. Format settings, Reference frames : 4 frames

  21. Codec ID : V_MPEG4/ISO/AVC

  22. Duration : 1 h 52 min

  23. Bit rate mode : Constant

  24. Bit rate : 8 669 kb/s

  25. Nominal bit rate : 10 000 kb/s

  26. Width : 1 920 pixels

  27. Height : 800 pixels

  28. Display aspect ratio : 2.40:1

  29. Frame rate mode : Constant

  30. Frame rate : 23.976 (24000/1001/53354) FPS

  31. Color space : YUV

  32. Chroma subsampling : 4:2:0

  33. Bit depth : 8 bits

  34. Scan type : Progressive

  35. Bits/(Pixel*Frame) : 0.235

  36. Stream size : 6.81 GiB (51%)

  37. Default : Yes

  38. Forced : No

  39. Color range : Limited

  40. Color primaries : BT.709

  41. Transfer characteristics : BT.709

  42. Matrix coefficients : BT.709


  43. Audio #1

  44. ID : 2

  45. Format : E-AC-3

  46. Format/Info : Enhanced AC-3

  47. Commercial name : Dolby Digital Plus

  48. Codec ID : A_EAC3

  49. Duration : 1 h 52 min

  50. Bit rate mode : Constant

  51. Bit rate : 640 kb/s

  52. Channel(s) : 6 channels

  53. Channel layout : L R C LFE Ls Rs

  54. Sampling rate : 48.0 kHz

  55. Frame rate : 31.250 FPS (1536 SPF)

  56. Compression mode : Lossy

  57. Stream size : 515 MiB (4%)

  58. Title : German

  59. Language : German

  60. Service kind : Complete Main

  61. Default : No

  62. Forced : No


  63. Audio #2

  64. ID : 3

  65. Format : E-AC-3

  66. Format/Info : Enhanced AC-3

  67. Commercial name : Dolby Digital Plus

  68. Codec ID : A_EAC3

  69. Duration : 1 h 52 min

  70. Bit rate mode : Constant

  71. Bit rate : 640 kb/s

  72. Channel(s) : 6 channels

  73. Channel layout : L R C LFE Ls Rs

  74. Sampling rate : 48.0 kHz

  75. Frame rate : 31.250 FPS (1536 SPF)

  76. Compression mode : Lossy

  77. Stream size : 515 MiB (4%)

  78. Title : English

  79. Language : English

  80. Service kind : Complete Main

  81. Default : No

  82. Forced : No


  83. Audio #3

  84. ID : 4

  85. Format : E-AC-3

  86. Format/Info : Enhanced AC-3

  87. Commercial name : Dolby Digital Plus

  88. Codec ID : A_EAC3

  89. Duration : 1 h 52 min

  90. Bit rate mode : Constant

  91. Bit rate : 640 kb/s

  92. Channel(s) : 6 channels

  93. Channel layout : L R C LFE Ls Rs

  94. Sampling rate : 48.0 kHz

  95. Frame rate : 31.250 FPS (1536 SPF)

  96. Compression mode : Lossy

  97. Stream size : 515 MiB (4%)

  98. Title : English [Audio Description]

  99. Language : English

  100. Service kind : Complete Main

  101. Default : No

  102. Forced : No


  103. Audio #4

  104. ID : 5

  105. Format : E-AC-3

  106. Format/Info : Enhanced AC-3

  107. Commercial name : Dolby Digital Plus

  108. Codec ID : A_EAC3

  109. Duration : 1 h 52 min

  110. Bit rate mode : Constant

  111. Bit rate : 640 kb/s

  112. Channel(s) : 6 channels

  113. Channel layout : L R C LFE Ls Rs

  114. Sampling rate : 48.0 kHz

  115. Frame rate : 31.250 FPS (1536 SPF)

  116. Compression mode : Lossy

  117. Stream size : 515 MiB (4%)

  118. Title : Castilian

  119. Language : Spanish

  120. Service kind : Complete Main

  121. Default : No

  122. Forced : No


  123. Audio #5

  124. ID : 6

  125. Format : E-AC-3

  126. Format/Info : Enhanced AC-3

  127. Commercial name : Dolby Digital Plus

  128. Codec ID : A_EAC3

  129. Duration : 1 h 52 min

  130. Bit rate mode : Constant

  131. Bit rate : 640 kb/s

  132. Channel(s) : 6 channels

  133. Channel layout : L R C LFE Ls Rs

  134. Sampling rate : 48.0 kHz

  135. Frame rate : 31.250 FPS (1536 SPF)

  136. Compression mode : Lossy

  137. Stream size : 515 MiB (4%)

  138. Title : Spanish

  139. Language : Spanish

  140. Service kind : Complete Main

  141. Default : No

  142. Forced : No


  143. Audio #6

  144. ID : 7

  145. Format : E-AC-3

  146. Format/Info : Enhanced AC-3

  147. Commercial name : Dolby Digital Plus

  148. Codec ID : A_EAC3

  149. Duration : 1 h 52 min

  150. Bit rate mode : Constant

  151. Bit rate : 640 kb/s

  152. Channel(s) : 6 channels

  153. Channel layout : L R C LFE Ls Rs

  154. Sampling rate : 48.0 kHz

  155. Frame rate : 31.250 FPS (1536 SPF)

  156. Compression mode : Lossy

  157. Stream size : 515 MiB (4%)

  158. Title : French (Canada)

  159. Language : French

  160. Service kind : Complete Main

  161. Default : No

  162. Forced : No


  163. Audio #7

  164. ID : 8

  165. Format : E-AC-3

  166. Format/Info : Enhanced AC-3

  167. Commercial name : Dolby Digital Plus

  168. Codec ID : A_EAC3

  169. Duration : 1 h 52 min

  170. Bit rate mode : Constant

  171. Bit rate : 640 kb/s

  172. Channel(s) : 6 channels

  173. Channel layout : L R C LFE Ls Rs

  174. Sampling rate : 48.0 kHz

  175. Frame rate : 31.250 FPS (1536 SPF)

  176. Compression mode : Lossy

  177. Stream size : 515 MiB (4%)

  178. Title : French (France)

  179. Language : French

  180. Service kind : Complete Main

  181. Default : No

  182. Forced : No


  183. Audio #8

  184. ID : 9

  185. Format : E-AC-3

  186. Format/Info : Enhanced AC-3

  187. Commercial name : Dolby Digital Plus

  188. Codec ID : A_EAC3

  189. Duration : 1 h 52 min

  190. Bit rate mode : Constant

  191. Bit rate : 640 kb/s

  192. Channel(s) : 6 channels

  193. Channel layout : L R C LFE Ls Rs

  194. Sampling rate : 48.0 kHz

  195. Frame rate : 31.250 FPS (1536 SPF)

  196. Compression mode : Lossy

  197. Stream size : 515 MiB (4%)

  198. Title : Italian

  199. Language : Italian

  200. Service kind : Complete Main

  201. Default : No

  202. Forced : No


  203. Audio #9

  204. ID : 10

  205. Format : E-AC-3

  206. Format/Info : Enhanced AC-3

  207. Commercial name : Dolby Digital Plus

  208. Codec ID : A_EAC3

  209. Duration : 1 h 52 min

  210. Bit rate mode : Constant

  211. Bit rate : 640 kb/s

  212. Channel(s) : 6 channels

  213. Channel layout : L R C LFE Ls Rs

  214. Sampling rate : 48.0 kHz

  215. Frame rate : 31.250 FPS (1536 SPF)

  216. Compression mode : Lossy

  217. Stream size : 515 MiB (4%)

  218. Title : Hungarian

  219. Language : Hungarian

  220. Service kind : Complete Main

  221. Default : No

  222. Forced : No


  223. Audio #10

  224. ID : 11

  225. Format : E-AC-3

  226. Format/Info : Enhanced AC-3

  227. Commercial name : Dolby Digital Plus

  228. Codec ID : A_EAC3

  229. Duration : 1 h 52 min

  230. Bit rate mode : Constant

  231. Bit rate : 640 kb/s

  232. Channel(s) : 6 channels

  233. Channel layout : L R C LFE Ls Rs

  234. Sampling rate : 48.0 kHz

  235. Frame rate : 31.250 FPS (1536 SPF)

  236. Compression mode : Lossy

  237. Stream size : 515 MiB (4%)

  238. Title : Polish

  239. Language : Polish

  240. Service kind : Complete Main

  241. Default : No

  242. Forced : No


  243. Audio #11

  244. ID : 12

  245. Format : E-AC-3

  246. Format/Info : Enhanced AC-3

  247. Commercial name : Dolby Digital Plus

  248. Codec ID : A_EAC3

  249. Duration : 1 h 52 min

  250. Bit rate mode : Constant

  251. Bit rate : 640 kb/s

  252. Channel(s) : 6 channels

  253. Channel layout : L R C LFE Ls Rs

  254. Sampling rate : 48.0 kHz

  255. Frame rate : 31.250 FPS (1536 SPF)

  256. Compression mode : Lossy

  257. Stream size : 515 MiB (4%)

  258. Title : Portuguese

  259. Language : Portuguese

  260. Service kind : Complete Main

  261. Default : No

  262. Forced : No


  263. Audio #12

  264. ID : 13

  265. Format : E-AC-3

  266. Format/Info : Enhanced AC-3

  267. Commercial name : Dolby Digital Plus

  268. Codec ID : A_EAC3

  269. Duration : 1 h 52 min

  270. Bit rate mode : Constant

  271. Bit rate : 640 kb/s

  272. Channel(s) : 6 channels

  273. Channel layout : L R C LFE Ls Rs

  274. Sampling rate : 48.0 kHz

  275. Frame rate : 31.250 FPS (1536 SPF)

  276. Compression mode : Lossy

  277. Stream size : 515 MiB (4%)

  278. Title : Czech

  279. Language : Czech

  280. Service kind : Complete Main

  281. Default : No

  282. Forced : No


  283. Audio #13

  284. ID : 14

  285. Format : E-AC-3

  286. Format/Info : Enhanced AC-3

  287. Commercial name : Dolby Digital Plus

  288. Codec ID : A_EAC3

  289. Duration : 1 h 52 min

  290. Bit rate mode : Constant

  291. Bit rate : 640 kb/s

  292. Channel(s) : 6 channels

  293. Channel layout : L R C LFE Ls Rs

  294. Sampling rate : 48.0 kHz

  295. Frame rate : 31.250 FPS (1536 SPF)

  296. Compression mode : Lossy

  297. Stream size : 515 MiB (4%)

  298. Title : Japanese

  299. Language : Japanese

  300. Service kind : Complete Main

  301. Default : No

  302. Forced : No


  303. Text #1

  304. ID : 15

  305. Format : UTF-8

  306. Codec ID : S_TEXT/UTF8

  307. Codec ID/Info : UTF-8 Plain Text

  308. Duration : 1 h 51 min

  309. Bit rate : 58 b/s

  310. Count of elements : 1691

  311. Stream size : 48.2 KiB (0%)

  312. Title : Malay

  313. Language : Malay

  314. Default : No

  315. Forced : No


  316. Text #2

  317. ID : 16

  318. Format : UTF-8

  319. Codec ID : S_TEXT/UTF8

  320. Codec ID/Info : UTF-8 Plain Text

  321. Duration : 1 h 51 min

  322. Bit rate : 61 b/s

  323. Count of elements : 1691

  324. Stream size : 50.1 KiB (0%)

  325. Title : Danish

  326. Language : Danish

  327. Default : No

  328. Forced : No


  329. Text #3

  330. ID : 17

  331. Format : UTF-8

  332. Codec ID : S_TEXT/UTF8

  333. Codec ID/Info : UTF-8 Plain Text

  334. Duration : 1 h 51 min

  335. Bit rate : 61 b/s

  336. Count of elements : 1425

  337. Stream size : 50.2 KiB (0%)

  338. Title : German

  339. Language : German

  340. Default : No

  341. Forced : No


  342. Text #4

  343. ID : 18

  344. Format : UTF-8

  345. Codec ID : S_TEXT/UTF8

  346. Codec ID/Info : UTF-8 Plain Text

  347. Duration : 1 h 52 min

  348. Bit rate : 85 b/s

  349. Count of elements : 2352

  350. Stream size : 70.6 KiB (0%)

  351. Title : English [CC][SDH]

  352. Language : English

  353. Default : No

  354. Forced : No


  355. Text #5

  356. ID : 19

  357. Format : UTF-8

  358. Codec ID : S_TEXT/UTF8

  359. Codec ID/Info : UTF-8 Plain Text

  360. Duration : 1 h 51 min

  361. Bit rate : 59 b/s

  362. Count of elements : 1693

  363. Stream size : 49.0 KiB (0%)

  364. Title : Castilian

  365. Language : Spanish

  366. Default : No

  367. Forced : No


  368. Text #6

  369. ID : 20

  370. Format : UTF-8

  371. Codec ID : S_TEXT/UTF8

  372. Codec ID/Info : UTF-8 Plain Text

  373. Duration : 1 h 51 min

  374. Bit rate : 61 b/s

  375. Count of elements : 1691

  376. Stream size : 50.3 KiB (0%)

  377. Title : Spanish

  378. Language : Spanish

  379. Default : No

  380. Forced : No


  381. Text #7

  382. ID : 21

  383. Format : UTF-8

  384. Codec ID : S_TEXT/UTF8

  385. Codec ID/Info : UTF-8 Plain Text

  386. Duration : 1 h 51 min

  387. Bit rate : 42 b/s

  388. Count of elements : 1117

  389. Stream size : 35.1 KiB (0%)

  390. Title : Filipino

  391. Language : fil

  392. Default : No

  393. Forced : No


  394. Text #8

  395. ID : 22

  396. Format : UTF-8

  397. Codec ID : S_TEXT/UTF8

  398. Codec ID/Info : UTF-8 Plain Text

  399. Duration : 1 h 51 min

  400. Bit rate : 60 b/s

  401. Count of elements : 1688

  402. Stream size : 49.3 KiB (0%)

  403. Title : French (Canada)

  404. Language : French

  405. Default : No

  406. Forced : No


  407. Text #9

  408. ID : 23

  409. Format : UTF-8

  410. Codec ID : S_TEXT/UTF8

  411. Codec ID/Info : UTF-8 Plain Text

  412. Duration : 1 h 51 min

  413. Bit rate : 53 b/s

  414. Count of elements : 1673

  415. Stream size : 43.8 KiB (0%)

  416. Title : French (France)

  417. Language : French

  418. Default : No

  419. Forced : No


  420. Text #10

  421. ID : 24

  422. Format : UTF-8

  423. Codec ID : S_TEXT/UTF8

  424. Codec ID/Info : UTF-8 Plain Text

  425. Duration : 1 h 51 min

  426. Bit rate : 58 b/s

  427. Count of elements : 1692

  428. Stream size : 47.6 KiB (0%)

  429. Title : Indonesian

  430. Language : Indonesian

  431. Default : No

  432. Forced : No


  433. Text #11

  434. ID : 25

  435. Format : UTF-8

  436. Codec ID : S_TEXT/UTF8

  437. Codec ID/Info : UTF-8 Plain Text

  438. Duration : 1 h 51 min

  439. Bit rate : 61 b/s

  440. Count of elements : 1693

  441. Stream size : 50.7 KiB (0%)

  442. Title : Italian

  443. Language : Italian

  444. Default : No

  445. Forced : No


  446. Text #12

  447. ID : 26

  448. Format : UTF-8

  449. Codec ID : S_TEXT/UTF8

  450. Codec ID/Info : UTF-8 Plain Text

  451. Duration : 1 h 51 min

  452. Bit rate : 63 b/s

  453. Count of elements : 1693

  454. Stream size : 51.9 KiB (0%)

  455. Title : Hungarian

  456. Language : Hungarian

  457. Default : No

  458. Forced : No


  459. Text #13

  460. ID : 27

  461. Format : UTF-8

  462. Codec ID : S_TEXT/UTF8

  463. Codec ID/Info : UTF-8 Plain Text

  464. Duration : 1 h 51 min

  465. Bit rate : 59 b/s

  466. Count of elements : 1681

  467. Stream size : 48.9 KiB (0%)

  468. Title : Dutch

  469. Language : Dutch

  470. Default : No

  471. Forced : No


  472. Text #14

  473. ID : 28

  474. Format : UTF-8

  475. Codec ID : S_TEXT/UTF8

  476. Codec ID/Info : UTF-8 Plain Text

  477. Duration : 1 h 51 min

  478. Bit rate : 60 b/s

  479. Count of elements : 1693

  480. Stream size : 49.7 KiB (0%)

  481. Title : Norwegian

  482. Language : Norwegian Bokmal

  483. Default : No

  484. Forced : No


  485. Text #15

  486. ID : 29

  487. Format : UTF-8

  488. Codec ID : S_TEXT/UTF8

  489. Codec ID/Info : UTF-8 Plain Text

  490. Duration : 1 h 51 min

  491. Bit rate : 52 b/s

  492. Count of elements : 1689

  493. Stream size : 43.4 KiB (0%)

  494. Title : Polish

  495. Language : Polish

  496. Default : No

  497. Forced : No


  498. Text #16

  499. ID : 30

  500. Format : UTF-8

  501. Codec ID : S_TEXT/UTF8

  502. Codec ID/Info : UTF-8 Plain Text

  503. Duration : 1 h 51 min

  504. Bit rate : 59 b/s

  505. Count of elements : 1686

  506. Stream size : 48.4 KiB (0%)

  507. Title : Portuguese (Brasil)

  508. Language : Portuguese

  509. Default : No

  510. Forced : No


  511. Text #17

  512. ID : 31

  513. Format : UTF-8

  514. Codec ID : S_TEXT/UTF8

  515. Codec ID/Info : UTF-8 Plain Text

  516. Duration : 1 h 51 min

  517. Bit rate : 58 b/s

  518. Count of elements : 1690

  519. Stream size : 47.6 KiB (0%)

  520. Title : Portuguese (Portugal)

  521. Language : Portuguese

  522. Default : No

  523. Forced : No


  524. Text #18

  525. ID : 32

  526. Format : UTF-8

  527. Codec ID : S_TEXT/UTF8

  528. Codec ID/Info : UTF-8 Plain Text

  529. Duration : 1 h 51 min

  530. Bit rate : 60 b/s

  531. Count of elements : 1670

  532. Stream size : 49.9 KiB (0%)

  533. Title : Romanian

  534. Language : Romanian

  535. Default : No

  536. Forced : No


  537. Text #19

  538. ID : 33

  539. Format : UTF-8

  540. Codec ID : S_TEXT/UTF8

  541. Codec ID/Info : UTF-8 Plain Text

  542. Duration : 1 h 51 min

  543. Bit rate : 58 b/s

  544. Count of elements : 1694

  545. Stream size : 48.1 KiB (0%)

  546. Title : Finnish

  547. Language : Finnish

  548. Default : No

  549. Forced : No


  550. Text #20

  551. ID : 34

  552. Format : UTF-8

  553. Codec ID : S_TEXT/UTF8

  554. Codec ID/Info : UTF-8 Plain Text

  555. Duration : 1 h 51 min

  556. Bit rate : 62 b/s

  557. Count of elements : 1689

  558. Stream size : 50.9 KiB (0%)

  559. Title : Swedish

  560. Language : Swedish

  561. Default : No

  562. Forced : No


  563. Text #21

  564. ID : 35

  565. Format : UTF-8

  566. Codec ID : S_TEXT/UTF8

  567. Codec ID/Info : UTF-8 Plain Text

  568. Duration : 1 h 51 min

  569. Bit rate : 62 b/s

  570. Count of elements : 1693

  571. Stream size : 51.3 KiB (0%)

  572. Title : Turkish

  573. Language : Turkish

  574. Default : No

  575. Forced : No


  576. Text #22

  577. ID : 36

  578. Format : UTF-8

  579. Codec ID : S_TEXT/UTF8

  580. Codec ID/Info : UTF-8 Plain Text

  581. Duration : 1 h 51 min

  582. Bit rate : 55 b/s

  583. Count of elements : 1685

  584. Stream size : 45.9 KiB (0%)

  585. Title : Czech

  586. Language : Czech

  587. Default : No

  588. Forced : No


  589. Text #23

  590. ID : 37

  591. Format : UTF-8

  592. Codec ID : S_TEXT/UTF8

  593. Codec ID/Info : UTF-8 Plain Text

  594. Duration : 1 h 51 min

  595. Bit rate : 117 b/s

  596. Count of elements : 1691

  597. Stream size : 95.9 KiB (0%)

  598. Title : Greek

  599. Language : Greek

  600. Default : No

  601. Forced : No


  602. Text #24

  603. ID : 38

  604. Format : UTF-8

  605. Codec ID : S_TEXT/UTF8

  606. Codec ID/Info : UTF-8 Plain Text

  607. Duration : 1 h 51 min

  608. Bit rate : 99 b/s

  609. Count of elements : 1692

  610. Stream size : 81.7 KiB (0%)

  611. Title : Russian

  612. Language : Russian

  613. Default : No

  614. Forced : No


  615. Text #25

  616. ID : 39

  617. Format : UTF-8

  618. Codec ID : S_TEXT/UTF8

  619. Codec ID/Info : UTF-8 Plain Text

  620. Duration : 1 h 51 min

  621. Bit rate : 101 b/s

  622. Count of elements : 1693

  623. Stream size : 83.6 KiB (0%)

  624. Title : Hebrew

  625. Language : Hebrew

  626. Default : No

  627. Forced : No


  628. Text #26

  629. ID : 40

  630. Format : UTF-8

  631. Codec ID : S_TEXT/UTF8

  632. Codec ID/Info : UTF-8 Plain Text

  633. Duration : 1 h 51 min

  634. Bit rate : 102 b/s

  635. Count of elements : 1691

  636. Stream size : 83.9 KiB (0%)

  637. Title : Arabic

  638. Language : Arabic

  639. Default : No

  640. Forced : No


  641. Text #27

  642. ID : 41

  643. Format : UTF-8

  644. Codec ID : S_TEXT/UTF8

  645. Codec ID/Info : UTF-8 Plain Text

  646. Duration : 1 h 51 min

  647. Bit rate : 151 b/s

  648. Count of elements : 1693

  649. Stream size : 124 KiB (0%)

  650. Title : Hindi

  651. Language : Hindi

  652. Default : No

  653. Forced : No


  654. Text #28

  655. ID : 42

  656. Format : UTF-8

  657. Codec ID : S_TEXT/UTF8

  658. Codec ID/Info : UTF-8 Plain Text

  659. Duration : 1 h 51 min

  660. Bit rate : 172 b/s

  661. Count of elements : 1693

  662. Stream size : 142 KiB (0%)

  663. Title : Tamil

  664. Language : Tamil

  665. Default : No

  666. Forced : No


  667. Text #29

  668. ID : 43

  669. Format : UTF-8

  670. Codec ID : S_TEXT/UTF8

  671. Codec ID/Info : UTF-8 Plain Text

  672. Duration : 1 h 51 min

  673. Bit rate : 161 b/s

  674. Count of elements : 1692

  675. Stream size : 132 KiB (0%)

  676. Title : Telugu

  677. Language : Telugu

  678. Default : No

  679. Forced : No


  680. Text #30

  681. ID : 44

  682. Format : UTF-8

  683. Codec ID : S_TEXT/UTF8

  684. Codec ID/Info : UTF-8 Plain Text

  685. Duration : 1 h 51 min

  686. Bit rate : 158 b/s

  687. Count of elements : 1693

  688. Stream size : 130 KiB (0%)

  689. Title : Thai

  690. Language : Thai

  691. Default : No

  692. Forced : No


  693. Text #31

  694. ID : 45

  695. Format : UTF-8

  696. Codec ID : S_TEXT/UTF8

  697. Codec ID/Info : UTF-8 Plain Text

  698. Duration : 1 h 51 min

  699. Bit rate : 55 b/s

  700. Count of elements : 1693

  701. Stream size : 45.7 KiB (0%)

  702. Title : Chinese (Simplified)

  703. Language : Chinese

  704. Default : No

  705. Forced : No


  706. Text #32

  707. ID : 46

  708. Format : UTF-8

  709. Codec ID : S_TEXT/UTF8

  710. Codec ID/Info : UTF-8 Plain Text

  711. Duration : 1 h 51 min

  712. Bit rate : 54 b/s

  713. Count of elements : 1693

  714. Stream size : 44.8 KiB (0%)

  715. Title : Chinese (Traditional)

  716. Language : Chinese

  717. Default : No

  718. Forced : No


  719. Text #33

  720. ID : 47

  721. Format : UTF-8

  722. Codec ID : S_TEXT/UTF8

  723. Codec ID/Info : UTF-8 Plain Text

  724. Duration : 1 h 51 min

  725. Bit rate : 48 b/s

  726. Count of elements : 1432

  727. Stream size : 39.7 KiB (0%)

  728. Title : Japanese

  729. Language : Japanese

  730. Default : No

  731. Forced : No


  732. Text #34

  733. ID : 48

  734. Format : UTF-8

  735. Codec ID : S_TEXT/UTF8

  736. Codec ID/Info : UTF-8 Plain Text

  737. Duration : 1 h 51 min

  738. Bit rate : 78 b/s

  739. Count of elements : 1689

  740. Stream size : 64.1 KiB (0%)

  741. Title : Korean

  742. Language : Korean

  743. Default : No

  744. Forced : No


  745. Menu

  746. 00:00:00.000 : en:Amazon Original

  747. 00:00:06.000 : en:Studio Logo

  748. 00:00:19.000 : en:Scene 3

  749. 00:06:07.000 : en:Scene 4

  750. 00:08:18.000 : en:Scene 5

  751. 00:12:04.000 : en:Scene 6

  752. 00:13:41.000 : en:Scene 7

  753. 00:14:27.000 : en:Scene 8

  754. 00:17:13.000 : en:Scene 9

  755. 00:21:23.000 : en:Scene 10

  756. 00:25:45.000 : en:Scene 11

  757. 00:26:41.000 : en:Scene 12

  758. 00:27:06.000 : en:Scene 13

  759. 00:28:31.000 : en:Scene 14

  760. 00:32:23.000 : en:Scene 15

  761. 00:37:59.000 : en:Scene 16

  762. 00:41:52.000 : en:Scene 17

  763. 00:43:54.000 : en:Scene 18

  764. 00:53:55.000 : en:Scene 19

  765. 00:58:32.000 : en:Scene 20

  766. 00:59:42.000 : en:Scene 21

  767. 01:06:49.000 : en:Scene 22

  768. 01:15:48.000 : en:Scene 23

  769. 01:17:56.000 : en:Scene 24

  770. 01:26:04.000 : en:Scene 25

  771. 01:28:29.000 : en:Scene 26

  772. 01:33:53.000 : en:Scene 27

  773. 01:36:14.000 : en:Scene 28

  774. 01:37:56.000 : en:Scene 29

  775. 01:39:44.000 : en:Scene 30

  776. 01:45:54.000 : en:End Credits




复制代码



文件下载


除非特别注明,本文『灰姑娘[中文字幕].Cinderella.2021.1080p.AMZN.WEB-DL.DDP5.1.x264-btbt9527.com 13.36GB』来源于互联网机器人自动抓取,非本站原创。 浮游电影网不对本文拥有版权,如有侵犯,请联系邮箱:fuyouu#yandex.com[#换成@]投诉。我们会在15个工作日内删除。 但烦请转载时请标明出处:“本文转载于『浮游电影网』,原文地址:https://www.fuyouu.com/19071.html

评论吧骚年!

发表你的见解   

昵称*

E-mail*(建议输入,以便收到博主回复的提示邮件)

验证码*

您可以使用eMule或eMule Mod(Windows)、aMule(Win、Linux、Mac)等软件下载eD2k链接。。
eMule收藏集(.emulecollection)文件是您选中的所有链接的列表文件。eMule可以直接下载它们。
按住SHIFT键选择可以选中多个选择框。
可用文件名和大小选择器来选择文件。
文件名选择器帮您根据文件名称或后缀来选择文件。不分大小写。
符号使用:
和:空格( )、+
不包含:-
或:|
转义:一对英文引号("");
匹配开头:^
匹配结尾:$
例如:
选中所有名称中包含有“eMule”或“0.49c”字眼,但不包含有“exe”字眼的:emule|0.49c -exe
选中所有名称的开头是“eMule”,结尾是“0.49c”的:^emule 0.49c$
选中所有名称中带有“eMule 0.49c”的(必须是“eMule 0.49c”,中间没有别的字符,不能是“eMule fake 0.49c”),需要转义:"emule 0.49c"
大小选择器帮您根据文件大小选择文件。