当前位置: 首页 >> 国产电影 >> 唤爱[国语配音/中文字幕][email protected] 18.90GB >> 正文

唤爱[国语配音/中文字幕][email protected] 18.90GB

2021年11月29日 09:03:09     电影发布:来源于网络     电影分类:国产电影     评论(0)    

唤爱[国语配音/中文字幕].The.Call.of.Love.2015.2160p.WEB DL.H265.DD2.0 @MKVChina 18.90GB 剧情片 国产电影  第1张

◎译 名 唤爱 / The Call of Love

◎年 代 2015

◎产 地 中国大陆

◎类 别 剧情

◎语 言 汉语普通话

◎上映日期 2017-03-23(中国大陆)

◎IMDb链接 https://www.imdb.com/title//

◎豆瓣评分 6.9/10 (771人评价)

◎豆瓣链接 https://movie.douban.com/subject/26996478/

◎片 长 90分钟

◎导 演 王焮 Xin Wang (id:1370376)

◎编 剧 王焮 Xin Wang (id:1370376)

◎演 员 杨欣 Xin Yang (id:1180718)

张博翔 Boxiang Zhang (id:1370377)

李松珂 Songke Li (id:1370379)

曲艳 Yan Qu (id:1370378)

王虎城 Hucheng Wang (id:1326939)

◎标 签 真实故事改编 / 感人 / 温情 / 儿童 / 家庭 / 中国大陆 / 剧情 / 国产

◎简 介

影片根据真实故事改编,主要讲述东某镇民房里住着一户生活窘迫的人家,母亲因病去世后,父亲又在一次矿难中遭遇终身瘫痪,于是家庭的重担全部都落到了5岁孩子孙家宝的身上,而孙家宝用快乐健康的精神熔化艰辛苦难生活的故事。

  1. ##### MediaInfo ######

  2. General

  3. Complete name : 唤爱[email protected]4

  4. Format : MPEG-4

  5. Format profile : Base Media

  6. Codec ID : isom (isom/iso2/mp41)

  7. File size : 18.9 GiB

  8. Duration : 1 h 30 min

  9. Overall bit rate : 30.0 Mb/s

  10. Writing application : OurTV Multimedia Platform


  11. Video

  12. ID : 1

  13. Format : HEVC

  14. Format/Info : High Efficiency Video Coding

  15. Format profile : [email protected]@High

  16. Codec ID : hev1

  17. Codec ID/Info : High Efficiency Video Coding

  18. Duration : 1 h 30 min

  19. Bit rate : 29.6 Mb/s

  20. Width : 3 840 pixels

  21. Height : 2 160 pixels

  22. Display aspect ratio : 16:9

  23. Frame rate mode : Constant

  24. Frame rate : 25.000 FPS

  25. Color space : YUV

  26. Chroma subsampling : 4:2:0

  27. Bit depth : 8 bits

  28. Bits/(Pixel*Frame) : 0.143

  29. Stream size : 18.7 GiB (99%)

  30. Writing library : PONTUS-series

  31. Color range : Limited

  32. Codec configuration box : hvcC


  33. Audio

  34. ID : 2

  35. Format : AC-3

  36. Format/Info : Audio Coding 3

  37. Commercial name : Dolby Digital

  38. Codec ID : ac-3

  39. Duration : 1 h 30 min

  40. Bit rate mode : Constant

  41. Bit rate : 384 kb/s

  42. Channel(s) : 2 channels

  43. Channel layout : L R

  44. Sampling rate : 48.0 kHz

  45. Frame rate : 31.250 FPS (1536 SPF)

  46. Compression mode : Lossy

  47. Stream size : 248 MiB (1%)

  48. Service kind : Complete Main

  49. Default : Yes

  50. Alternate group : 1




复制代码



文件下载


除非特别注明,本文『唤爱[国语配音/中文字幕][email protected] 18.90GB』来源于互联网机器人自动抓取,非本站原创。 浮游电影网不对本文拥有版权,如有侵犯,请联系邮箱:fuyouu#yandex.com[#换成@]投诉。我们会在15个工作日内删除。 但烦请转载时请标明出处:“本文转载于『浮游电影网』,原文地址:https://www.fuyouu.com/19063.html

评论吧骚年!

发表你的见解   

昵称*

E-mail*(建议输入,以便收到博主回复的提示邮件)

验证码*

您可以使用eMule或eMule Mod(Windows)、aMule(Win、Linux、Mac)等软件下载eD2k链接。。
eMule收藏集(.emulecollection)文件是您选中的所有链接的列表文件。eMule可以直接下载它们。
按住SHIFT键选择可以选中多个选择框。
可用文件名和大小选择器来选择文件。
文件名选择器帮您根据文件名称或后缀来选择文件。不分大小写。
符号使用:
和:空格( )、+
不包含:-
或:|
转义:一对英文引号("");
匹配开头:^
匹配结尾:$
例如:
选中所有名称中包含有“eMule”或“0.49c”字眼,但不包含有“exe”字眼的:emule|0.49c -exe
选中所有名称的开头是“eMule”,结尾是“0.49c”的:^emule 0.49c$
选中所有名称中带有“eMule 0.49c”的(必须是“eMule 0.49c”,中间没有别的字符,不能是“eMule fake 0.49c”),需要转义:"emule 0.49c"
大小选择器帮您根据文件大小选择文件。