当前位置: 首页 >> 日韩电影 >> 回忆照片[中文字幕][email protected] 2.94GB >> 正文

回忆照片[中文字幕][email protected] 2.94GB

2021年11月29日 08:59:11     电影发布:来源于网络     电影分类:日韩电影     评论(0)    

回忆照片[中文字幕].Photograph.of.Memories.2021.1080p.WEB DL.AAC2.0.H.264 @MKVChina 2.94GB 剧情片 日韩电影  第1张

◎译 名 回忆照片 / 回忆的照片

◎片 名 おもいで写眞

◎年 代 2021

◎产 地 日本

◎语 言 日语

◎上映日期 2021-01-29(日本)

◎IMDb链接 https://www.imdb.com/title//

◎豆瓣链接 https://movie.douban.com/subject/35236830/

◎导 演 熊泽尚人 Naoto Kumazawa (id:1003756)

◎编 剧 熊泽尚人 Naoto Kumazawa (id:1003756)

◎演 员 深川麻衣 Mai Fukagawa (id:1352008)

高良健吾 Kengo Kora (id:1042089)

香里奈 Karina (id:1033622)

井浦新 ARATA (id:1050495)

古谷一行 Ikk? Furuya (id:1086288)

吉行和子 Kazuko Yoshiyuki (id:1025510)

◎标 签 深川麻衣 / 日本电影 / 高良健吾 / 日本 / 熊泽尚人 / 香里奈 / 映画 / 井浦新

◎简 介

本作は、深川所属の芸能プロダクション「株式会社テンカラット」が設立25周年という節目に熊澤監督とタッグを組み、制作を企画したもの。『ユリゴコロ』や『ごっこ』でメガホンを取った熊澤監督が、自身の小説『おもいで写眞』(幻冬舎文庫)を実写映画化。“人が生きる豊かさと年を重ねる美しさ”をテーマに、夢に敗れ故郷へ戻った主人公?結子(深川)が祖父の残した写真館で遺影写真を撮り始め、その中で成長していく様を描き出す。

  1. ##### MediaInfo ######

  2. General

  3. Unique ID : 35138583525758665273368803385474213573 (0x1A6F71ECEEDAC7972F6AE4DCAC6AE6C5)

  4. Complete name : [email protected]hina.mkv

  5. Format : Matroska

  6. Format version : Version 4

  7. File size : 2.94 GiB

  8. Duration : 1 h 51 min

  9. Overall bit rate : 3 791 kb/s

  10. Encoded date : UTC 2021-11-28 01:31:45

  11. Writing application : mkvmerge v56.1.0 ('My Friend') 64-bit

  12. Writing library : libebml v1.4.2 + libmatroska v1.6.4


  13. Video

  14. ID : 1

  15. Format : AVC

  16. Format/Info : Advanced Video Codec

  17. Format profile : [email protected]

  18. Format settings : CABAC / 1 Ref Frames

  19. Format settings, CABAC : Yes

  20. Format settings, Reference frames : 1 frame

  21. Format settings, GOP : M=1, N=60

  22. Codec ID : V_MPEG4/ISO/AVC

  23. Duration : 1 h 51 min

  24. Bit rate mode : Constant

  25. Bit rate : 3 662 kb/s

  26. Nominal bit rate : 4 000 kb/s

  27. Width : 1 920 pixels

  28. Height : 1 080 pixels

  29. Display aspect ratio : 16:9

  30. Frame rate mode : Constant

  31. Frame rate : 29.970 (30000/1001/53354) FPS

  32. Color space : YUV

  33. Chroma subsampling : 4:2:0

  34. Bit depth : 8 bits

  35. Scan type : Progressive

  36. Bits/(Pixel*Frame) : 0.059

  37. Stream size : 2.84 GiB (97%)

  38. Language : English

  39. Default : Yes

  40. Forced : No


  41. Audio

  42. ID : 2

  43. Format : AAC LC

  44. Format/Info : Advanced Audio Codec Low Complexity

  45. Codec ID : A_AAC-2

  46. Duration : 1 h 51 min

  47. Bit rate : 125 kb/s

  48. Channel(s) : 2 channels

  49. Channel layout : L R

  50. Sampling rate : 48.0 kHz

  51. Frame rate : 46.875 FPS (1024 SPF)

  52. Compression mode : Lossy

  53. Stream size : 99.6 MiB (3%)

  54. Language : Japanese

  55. Default : Yes

  56. Forced : No


  57. Text #1

  58. ID : 3

  59. Format : UTF-8

  60. Codec ID : S_TEXT/UTF8

  61. Codec ID/Info : UTF-8 Plain Text

  62. Duration : 1 h 46 min

  63. Bit rate : 28 b/s

  64. Count of elements : 957

  65. Stream size : 22.0 KiB (0%)

  66. Title : Chinese Simplified

  67. Language : Chinese

  68. Default : Yes

  69. Forced : No


  70. Text #2

  71. ID : 4

  72. Format : UTF-8

  73. Codec ID : S_TEXT/UTF8

  74. Codec ID/Info : UTF-8 Plain Text

  75. Duration : 1 h 46 min

  76. Bit rate : 28 b/s

  77. Count of elements : 957

  78. Stream size : 22.0 KiB (0%)

  79. Title : Chinese Traditional

  80. Language : Chinese

  81. Default : No

  82. Forced : No




复制代码



文件下载


除非特别注明,本文『回忆照片[中文字幕][email protected] 2.94GB』来源于互联网机器人自动抓取,非本站原创。 浮游电影网不对本文拥有版权,如有侵犯,请联系邮箱:fuyouu#yandex.com[#换成@]投诉。我们会在15个工作日内删除。 但烦请转载时请标明出处:“本文转载于『浮游电影网』,原文地址:https://www.fuyouu.com/19060.html

评论吧骚年!

发表你的见解   

昵称*

E-mail*(建议输入,以便收到博主回复的提示邮件)

验证码*

您可以使用eMule或eMule Mod(Windows)、aMule(Win、Linux、Mac)等软件下载eD2k链接。。
eMule收藏集(.emulecollection)文件是您选中的所有链接的列表文件。eMule可以直接下载它们。
按住SHIFT键选择可以选中多个选择框。
可用文件名和大小选择器来选择文件。
文件名选择器帮您根据文件名称或后缀来选择文件。不分大小写。
符号使用:
和:空格( )、+
不包含:-
或:|
转义:一对英文引号("");
匹配开头:^
匹配结尾:$
例如:
选中所有名称中包含有“eMule”或“0.49c”字眼,但不包含有“exe”字眼的:emule|0.49c -exe
选中所有名称的开头是“eMule”,结尾是“0.49c”的:^emule 0.49c$
选中所有名称中带有“eMule 0.49c”的(必须是“eMule 0.49c”,中间没有别的字符,不能是“eMule fake 0.49c”),需要转义:"emule 0.49c"
大小选择器帮您根据文件大小选择文件。