当前位置: 首页 >> 欧美电影 >> 宾果地狱[中文字幕][email protected] 6.44GB >> 正文

宾果地狱[中文字幕][email protected] 6.44GB

2021年11月29日 08:53:19     电影发布:来源于网络     电影分类:欧美电影     评论(0)    

宾果地狱[中文字幕].Bingo.Hell.2021.1080p.AMZN.WEB DL.DDP5.1.x264 @MKVChina 6.44GB 奇幻片 恐怖片 喜剧片 欧美电影  第1张

◎译 名 宾果地狱 / Bingo

◎片 名 Bingo Hell

◎年 代 2021

◎产 地 美国

◎类 别 喜剧 / 恐怖 / 奇幻

◎语 言 英语

◎上映日期 2021-10-01(美国网络)

◎IMDb链接 https://www.imdb.com/title/tt13372992/

◎豆瓣评分 4.1/10 (152人评价)

◎豆瓣链接 https://movie.douban.com/subject/35238004/

◎导 演 吉吉·索尔·格雷罗 Gigi Saul Guerrero (id:1434300)

◎编 剧 吉吉·索尔·格雷罗 Gigi Saul Guerrero (id:1434300)

Perry Blackshear Perry Blackshear (id:1372642)

◎演 员 理查德·布雷克 Richard Brake (id:1036682)

L·斯科特·卡德维尔 L. Scott Caldwell (id:1068859)

贝蒂拉·达马斯 Bertila Damas (id:1387625)

艾德里安娜·巴拉扎 Adriana Barraza (id:1032220)

吉吉·索尔·格雷罗 Gigi Saul Guerrero (id:1434300)

约书亚·凯莱布·约翰逊 Joshua Caleb Johnson (id:1437759)

大卫·詹森 David Jensen (id:1055924)

格罗弗·库尔森 Grover Coulson (id:1378305)

乔纳森·梅迪纳 Jonathan Medina (id:1426897)

◎标 签 美国 / 恐怖 / 惊悚 / 奇幻 / 2021 / 喜剧 / 美国电影 / WK

◎简 介

In the Barrio of Oak Springs, live a strong and stubborn group of elderly friends who refuse to be gentrified. Their leader, Lupita, keeps them together as a community, a family. But little did they know, their beloved Bingo hall is about to be sold to a much more powerful force than money itself.

  1. ##### MediaInfo ######

  2. General

  3. Unique ID : 145122622013794450631458575043710286241 (0x6D2D99AF847FFE09EED5A04E25F1F9A1)

  4. Complete name : [email protected]

  5. Format : Matroska

  6. Format version : Version 4

  7. File size : 6.44 GiB

  8. Duration : 1 h 26 min

  9. Overall bit rate : 10.7 Mb/s

  10. Encoded date : UTC 2021-11-28 10:59:14

  11. Writing application : mkvmerge v63.0.0 ('Everything') 64-bit

  12. Writing library : libebml v1.4.2 + libmatroska v1.6.4


  13. Video

  14. ID : 1

  15. Format : AVC

  16. Format/Info : Advanced Video Codec

  17. Format profile : [email protected]

  18. Format settings : CABAC / 4 Ref Frames

  19. Format settings, CABAC : Yes

  20. Format settings, Reference frames : 4 frames

  21. Codec ID : V_MPEG4/ISO/AVC

  22. Duration : 1 h 26 min

  23. Bit rate mode : Constant

  24. Bit rate : 9 371 kb/s

  25. Nominal bit rate : 10 000 kb/s

  26. Width : 1 920 pixels

  27. Height : 800 pixels

  28. Display aspect ratio : 2.40:1

  29. Frame rate mode : Constant

  30. Frame rate : 23.976 (24000/1001/53354) FPS

  31. Color space : YUV

  32. Chroma subsampling : 4:2:0

  33. Bit depth : 8 bits

  34. Scan type : Progressive

  35. Bits/(Pixel*Frame) : 0.254

  36. Stream size : 5.66 GiB (88%)

  37. Default : Yes

  38. Forced : No

  39. Color range : Limited

  40. Color primaries : BT.709

  41. Transfer characteristics : BT.709

  42. Matrix coefficients : BT.709


  43. Audio #1

  44. ID : 2

  45. Format : E-AC-3

  46. Format/Info : Enhanced AC-3

  47. Commercial name : Dolby Digital Plus

  48. Codec ID : A_EAC3

  49. Duration : 1 h 26 min

  50. Bit rate mode : Constant

  51. Bit rate : 640 kb/s

  52. Channel(s) : 6 channels

  53. Channel layout : L R C LFE Ls Rs

  54. Sampling rate : 48.0 kHz

  55. Frame rate : 31.250 FPS (1536 SPF)

  56. Compression mode : Lossy

  57. Stream size : 396 MiB (6%)

  58. Title : English

  59. Language : English

  60. Service kind : Complete Main

  61. Default : No

  62. Forced : No


  63. Audio #2

  64. ID : 3

  65. Format : E-AC-3

  66. Format/Info : Enhanced AC-3

  67. Commercial name : Dolby Digital Plus

  68. Codec ID : A_EAC3

  69. Duration : 1 h 26 min

  70. Bit rate mode : Constant

  71. Bit rate : 640 kb/s

  72. Channel(s) : 6 channels

  73. Channel layout : L R C LFE Ls Rs

  74. Sampling rate : 48.0 kHz

  75. Frame rate : 31.250 FPS (1536 SPF)

  76. Compression mode : Lossy

  77. Stream size : 396 MiB (6%)

  78. Title : English [Audio Description]

  79. Language : English

  80. Service kind : Complete Main

  81. Default : No

  82. Forced : No


  83. Text #1

  84. ID : 4

  85. Format : UTF-8

  86. Codec ID : S_TEXT/UTF8

  87. Codec ID/Info : UTF-8 Plain Text

  88. Duration : 1 h 24 min

  89. Bit rate : 36 b/s

  90. Count of elements : 814

  91. Stream size : 22.8 KiB (0%)

  92. Title : Malay

  93. Language : Malay

  94. Default : No

  95. Forced : No


  96. Text #2

  97. ID : 5

  98. Format : UTF-8

  99. Codec ID : S_TEXT/UTF8

  100. Codec ID/Info : UTF-8 Plain Text

  101. Duration : 1 h 24 min

  102. Bit rate : 37 b/s

  103. Count of elements : 784

  104. Stream size : 23.3 KiB (0%)

  105. Title : Danish

  106. Language : Danish

  107. Default : No

  108. Forced : No


  109. Text #3

  110. ID : 6

  111. Format : UTF-8

  112. Codec ID : S_TEXT/UTF8

  113. Codec ID/Info : UTF-8 Plain Text

  114. Duration : 1 h 24 min

  115. Bit rate : 38 b/s

  116. Count of elements : 784

  117. Stream size : 23.6 KiB (0%)

  118. Title : German

  119. Language : German

  120. Default : No

  121. Forced : No


  122. Text #4

  123. ID : 7

  124. Format : UTF-8

  125. Codec ID : S_TEXT/UTF8

  126. Codec ID/Info : UTF-8 Plain Text

  127. Duration : 1 h 25 min

  128. Bit rate : 58 b/s

  129. Count of elements : 1369

  130. Stream size : 36.4 KiB (0%)

  131. Title : English [CC][SDH]

  132. Language : English

  133. Default : No

  134. Forced : No


  135. Text #5

  136. ID : 8

  137. Format : UTF-8

  138. Codec ID : S_TEXT/UTF8

  139. Codec ID/Info : UTF-8 Plain Text

  140. Duration : 1 h 24 min

  141. Bit rate : 38 b/s

  142. Count of elements : 777

  143. Stream size : 24.0 KiB (0%)

  144. Title : Castilian

  145. Language : Spanish

  146. Default : No

  147. Forced : No


  148. Text #6

  149. ID : 9

  150. Format : UTF-8

  151. Codec ID : S_TEXT/UTF8

  152. Codec ID/Info : UTF-8 Plain Text

  153. Duration : 1 h 24 min

  154. Bit rate : 37 b/s

  155. Count of elements : 787

  156. Stream size : 23.6 KiB (0%)

  157. Title : Spanish

  158. Language : Spanish

  159. Default : No

  160. Forced : No


  161. Text #7

  162. ID : 10

  163. Format : UTF-8

  164. Codec ID : S_TEXT/UTF8

  165. Codec ID/Info : UTF-8 Plain Text

  166. Duration : 1 h 24 min

  167. Bit rate : 36 b/s

  168. Count of elements : 777

  169. Stream size : 23.0 KiB (0%)

  170. Title : Filipino

  171. Language : fil

  172. Default : No

  173. Forced : No


  174. Text #8

  175. ID : 11

  176. Format : UTF-8

  177. Codec ID : S_TEXT/UTF8

  178. Codec ID/Info : UTF-8 Plain Text

  179. Duration : 1 h 24 min

  180. Bit rate : 37 b/s

  181. Count of elements : 787

  182. Stream size : 23.4 KiB (0%)

  183. Title : French

  184. Language : French

  185. Default : No

  186. Forced : No


  187. Text #9

  188. ID : 12

  189. Format : UTF-8

  190. Codec ID : S_TEXT/UTF8

  191. Codec ID/Info : UTF-8 Plain Text

  192. Duration : 1 h 24 min

  193. Bit rate : 36 b/s

  194. Count of elements : 788

  195. Stream size : 22.5 KiB (0%)

  196. Title : Indonesian

  197. Language : Indonesian

  198. Default : No

  199. Forced : No


  200. Text #10

  201. ID : 13

  202. Format : UTF-8

  203. Codec ID : S_TEXT/UTF8

  204. Codec ID/Info : UTF-8 Plain Text

  205. Duration : 1 h 24 min

  206. Bit rate : 38 b/s

  207. Count of elements : 785

  208. Stream size : 23.8 KiB (0%)

  209. Title : Italian

  210. Language : Italian

  211. Default : No

  212. Forced : No


  213. Text #11

  214. ID : 14

  215. Format : UTF-8

  216. Codec ID : S_TEXT/UTF8

  217. Codec ID/Info : UTF-8 Plain Text

  218. Duration : 1 h 24 min

  219. Bit rate : 38 b/s

  220. Count of elements : 783

  221. Stream size : 23.6 KiB (0%)

  222. Title : Hungarian

  223. Language : Hungarian

  224. Default : No

  225. Forced : No


  226. Text #12

  227. ID : 15

  228. Format : UTF-8

  229. Codec ID : S_TEXT/UTF8

  230. Codec ID/Info : UTF-8 Plain Text

  231. Duration : 1 h 24 min

  232. Bit rate : 38 b/s

  233. Count of elements : 770

  234. Stream size : 23.8 KiB (0%)

  235. Title : Dutch

  236. Language : Dutch

  237. Default : No

  238. Forced : No


  239. Text #13

  240. ID : 16

  241. Format : UTF-8

  242. Codec ID : S_TEXT/UTF8

  243. Codec ID/Info : UTF-8 Plain Text

  244. Duration : 1 h 24 min

  245. Bit rate : 35 b/s

  246. Count of elements : 787

  247. Stream size : 21.8 KiB (0%)

  248. Title : Norwegian

  249. Language : Norwegian Bokmal

  250. Default : No

  251. Forced : No


  252. Text #14

  253. ID : 17

  254. Format : UTF-8

  255. Codec ID : S_TEXT/UTF8

  256. Codec ID/Info : UTF-8 Plain Text

  257. Duration : 1 h 24 min

  258. Bit rate : 37 b/s

  259. Count of elements : 775

  260. Stream size : 23.2 KiB (0%)

  261. Title : Polish

  262. Language : Polish

  263. Default : No

  264. Forced : No


  265. Text #15

  266. ID : 18

  267. Format : UTF-8

  268. Codec ID : S_TEXT/UTF8

  269. Codec ID/Info : UTF-8 Plain Text

  270. Duration : 1 h 24 min

  271. Bit rate : 37 b/s

  272. Count of elements : 787

  273. Stream size : 23.3 KiB (0%)

  274. Title : Portuguese (Brasil)

  275. Language : Portuguese

  276. Default : No

  277. Forced : No


  278. Text #16

  279. ID : 19

  280. Format : UTF-8

  281. Codec ID : S_TEXT/UTF8

  282. Codec ID/Info : UTF-8 Plain Text

  283. Duration : 1 h 24 min

  284. Bit rate : 37 b/s

  285. Count of elements : 788

  286. Stream size : 23.4 KiB (0%)

  287. Title : Portuguese (Portugal)

  288. Language : Portuguese

  289. Default : No

  290. Forced : No


  291. Text #17

  292. ID : 20

  293. Format : UTF-8

  294. Codec ID : S_TEXT/UTF8

  295. Codec ID/Info : UTF-8 Plain Text

  296. Duration : 1 h 24 min

  297. Bit rate : 39 b/s

  298. Count of elements : 788

  299. Stream size : 24.4 KiB (0%)

  300. Title : Romanian

  301. Language : Romanian

  302. Default : No

  303. Forced : No


  304. Text #18

  305. ID : 21

  306. Format : UTF-8

  307. Codec ID : S_TEXT/UTF8

  308. Codec ID/Info : UTF-8 Plain Text

  309. Duration : 1 h 24 min

  310. Bit rate : 34 b/s

  311. Count of elements : 787

  312. Stream size : 21.6 KiB (0%)

  313. Title : Finnish

  314. Language : Finnish

  315. Default : No

  316. Forced : No


  317. Text #19

  318. ID : 22

  319. Format : UTF-8

  320. Codec ID : S_TEXT/UTF8

  321. Codec ID/Info : UTF-8 Plain Text

  322. Duration : 1 h 24 min

  323. Bit rate : 38 b/s

  324. Count of elements : 784

  325. Stream size : 23.7 KiB (0%)

  326. Title : Swedish

  327. Language : Swedish

  328. Default : No

  329. Forced : No


  330. Text #20

  331. ID : 23

  332. Format : UTF-8

  333. Codec ID : S_TEXT/UTF8

  334. Codec ID/Info : UTF-8 Plain Text

  335. Duration : 1 h 24 min

  336. Bit rate : 38 b/s

  337. Count of elements : 825

  338. Stream size : 23.8 KiB (0%)

  339. Title : Turkish

  340. Language : Turkish

  341. Default : No

  342. Forced : No


  343. Text #21

  344. ID : 24

  345. Format : UTF-8

  346. Codec ID : S_TEXT/UTF8

  347. Codec ID/Info : UTF-8 Plain Text

  348. Duration : 1 h 24 min

  349. Bit rate : 34 b/s

  350. Count of elements : 789

  351. Stream size : 21.3 KiB (0%)

  352. Title : Czech

  353. Language : Czech

  354. Default : No

  355. Forced : No


  356. Text #22

  357. ID : 25

  358. Format : UTF-8

  359. Codec ID : S_TEXT/UTF8

  360. Codec ID/Info : UTF-8 Plain Text

  361. Duration : 1 h 24 min

  362. Bit rate : 69 b/s

  363. Count of elements : 791

  364. Stream size : 43.4 KiB (0%)

  365. Title : Greek

  366. Language : Greek

  367. Default : No

  368. Forced : No


  369. Text #23

  370. ID : 26

  371. Format : UTF-8

  372. Codec ID : S_TEXT/UTF8

  373. Codec ID/Info : UTF-8 Plain Text

  374. Duration : 1 h 24 min

  375. Bit rate : 62 b/s

  376. Count of elements : 791

  377. Stream size : 39.0 KiB (0%)

  378. Title : Russian

  379. Language : Russian

  380. Default : No

  381. Forced : No


  382. Text #24

  383. ID : 27

  384. Format : UTF-8

  385. Codec ID : S_TEXT/UTF8

  386. Codec ID/Info : UTF-8 Plain Text

  387. Duration : 1 h 24 min

  388. Bit rate : 62 b/s

  389. Count of elements : 790

  390. Stream size : 38.8 KiB (0%)

  391. Title : Hebrew

  392. Language : Hebrew

  393. Default : No

  394. Forced : No


  395. Text #25

  396. ID : 28

  397. Format : UTF-8

  398. Codec ID : S_TEXT/UTF8

  399. Codec ID/Info : UTF-8 Plain Text

  400. Duration : 1 h 24 min

  401. Bit rate : 64 b/s

  402. Count of elements : 790

  403. Stream size : 39.9 KiB (0%)

  404. Title : Arabic

  405. Language : Arabic

  406. Default : No

  407. Forced : No


  408. Text #26

  409. ID : 29

  410. Format : UTF-8

  411. Codec ID : S_TEXT/UTF8

  412. Codec ID/Info : UTF-8 Plain Text

  413. Duration : 1 h 24 min

  414. Bit rate : 96 b/s

  415. Count of elements : 791

  416. Stream size : 60.2 KiB (0%)

  417. Title : Hindi

  418. Language : Hindi

  419. Default : No

  420. Forced : No


  421. Text #27

  422. ID : 30

  423. Format : UTF-8

  424. Codec ID : S_TEXT/UTF8

  425. Codec ID/Info : UTF-8 Plain Text

  426. Duration : 1 h 24 min

  427. Bit rate : 98 b/s

  428. Count of elements : 791

  429. Stream size : 61.5 KiB (0%)

  430. Title : Tamil

  431. Language : Tamil

  432. Default : No

  433. Forced : No


  434. Text #28

  435. ID : 31

  436. Format : UTF-8

  437. Codec ID : S_TEXT/UTF8

  438. Codec ID/Info : UTF-8 Plain Text

  439. Duration : 1 h 24 min

  440. Bit rate : 100 b/s

  441. Count of elements : 788

  442. Stream size : 62.7 KiB (0%)

  443. Title : Telugu

  444. Language : Telugu

  445. Default : No

  446. Forced : No


  447. Text #29

  448. ID : 32

  449. Format : UTF-8

  450. Codec ID : S_TEXT/UTF8

  451. Codec ID/Info : UTF-8 Plain Text

  452. Duration : 1 h 24 min

  453. Bit rate : 94 b/s

  454. Count of elements : 791

  455. Stream size : 59.0 KiB (0%)

  456. Title : Thai

  457. Language : Thai

  458. Default : No

  459. Forced : No


  460. Text #30

  461. ID : 33

  462. Format : UTF-8

  463. Codec ID : S_TEXT/UTF8

  464. Codec ID/Info : UTF-8 Plain Text

  465. Duration : 1 h 24 min

  466. Bit rate : 36 b/s

  467. Count of elements : 791

  468. Stream size : 22.9 KiB (0%)

  469. Title : Chinese (Simplified)

  470. Language : Chinese

  471. Default : No

  472. Forced : No


  473. Text #31

  474. ID : 34

  475. Format : UTF-8

  476. Codec ID : S_TEXT/UTF8

  477. Codec ID/Info : UTF-8 Plain Text

  478. Duration : 1 h 24 min

  479. Bit rate : 33 b/s

  480. Count of elements : 791

  481. Stream size : 21.0 KiB (0%)

  482. Title : Chinese (Traditional)

  483. Language : Chinese

  484. Default : No

  485. Forced : No


  486. Text #32

  487. ID : 35

  488. Format : UTF-8

  489. Codec ID : S_TEXT/UTF8

  490. Codec ID/Info : UTF-8 Plain Text

  491. Duration : 1 h 24 min

  492. Bit rate : 38 b/s

  493. Count of elements : 823

  494. Stream size : 23.7 KiB (0%)

  495. Title : Japanese

  496. Language : Japanese

  497. Default : No

  498. Forced : No


  499. Text #33

  500. ID : 36

  501. Format : UTF-8

  502. Codec ID : S_TEXT/UTF8

  503. Codec ID/Info : UTF-8 Plain Text

  504. Duration : 1 h 24 min

  505. Bit rate : 48 b/s

  506. Count of elements : 791

  507. Stream size : 30.1 KiB (0%)

  508. Title : Korean

  509. Language : Korean

  510. Default : No

  511. Forced : No




复制代码



文件下载


除非特别注明,本文『宾果地狱[中文字幕][email protected] 6.44GB』来源于互联网机器人自动抓取,非本站原创。 浮游电影网不对本文拥有版权,如有侵犯,请联系邮箱:fuyouu#yandex.com[#换成@]投诉。我们会在15个工作日内删除。 但烦请转载时请标明出处:“本文转载于『浮游电影网』,原文地址:https://www.fuyouu.com/19057.html

评论吧骚年!

发表你的见解   

昵称*

E-mail*(建议输入,以便收到博主回复的提示邮件)

验证码*

您可以使用eMule或eMule Mod(Windows)、aMule(Win、Linux、Mac)等软件下载eD2k链接。。
eMule收藏集(.emulecollection)文件是您选中的所有链接的列表文件。eMule可以直接下载它们。
按住SHIFT键选择可以选中多个选择框。
可用文件名和大小选择器来选择文件。
文件名选择器帮您根据文件名称或后缀来选择文件。不分大小写。
符号使用:
和:空格( )、+
不包含:-
或:|
转义:一对英文引号("");
匹配开头:^
匹配结尾:$
例如:
选中所有名称中包含有“eMule”或“0.49c”字眼,但不包含有“exe”字眼的:emule|0.49c -exe
选中所有名称的开头是“eMule”,结尾是“0.49c”的:^emule 0.49c$
选中所有名称中带有“eMule 0.49c”的(必须是“eMule 0.49c”,中间没有别的字符,不能是“eMule fake 0.49c”),需要转义:"emule 0.49c"
大小选择器帮您根据文件大小选择文件。