当前位置: 首页 >> 国产电影 >> 二捕出山[国语配音/中文字幕][email protected] 1.17GB >> 正文

二捕出山[国语配音/中文字幕][email protected] 1.17GB

2021年11月29日 08:37:24     电影发布:来源于网络     电影分类:国产电影     评论(0)    

二捕出山[国语配音/中文字幕].Top.Agents.Return.2021.1080p.WEB DL.H264.DDP2.0 @MKVChina 1.17GB 动作片 喜剧片 剧情片 国产电影  第1张

◎译 名 二捕出山

◎年 代 2022

◎产 地 中国大陆

◎类 别 剧情 / 喜剧 / 动作

◎语 言 汉语普通话

◎IMDb链接 https://www.imdb.com/title//

◎豆瓣链接 https://movie.douban.com/subject/35624840/

◎片 长 78分钟

◎导 演 段国云 Guoyun Duan (id:1314644)

◎编 剧 段国云 Guoyun Duan (id:1314644)

◎演 员 陈冰 Bing Chen (id:1407471)

王宇 Yu Wang (id:1407462)

杜晓宇 Xiaoyu Du (id:1351815)

王成思 Chengsi Wang (id:1383525)

◎标 签 大陆 / 剧情 / 2021

◎简 介

明朝年间,镖师神青奉命押解生辰纲,途中遭迷烟蛊毒人突袭。生辰纲被劫,皇帝大怒,命特工局彻查此事。死里逃生的神青为洗清勾结劫镖人的冤屈,被迫加入皇家特工局,和一心替父申冤女扮男装的王兔妞组成拍档,誓要查出此事真相。二人在危机四伏的探案过程中逗趣不断耍宝不停,救太子、制解药一系列神操作,让探案之路笑料百出。这对欢喜冤家最终能否化解重重危机?两人日渐升温的感情又能否守得云开见月明?

  1. ##### MediaInfo ######

  2. General

  3. Unique ID : 244215033624781044805245251660198025880 (0xB7BA1AC7E6B4A29DEB59314774A19A98)

  4. Complete name : 二捕出山[email protected]mkv

  5. Format : Matroska

  6. Format version : Version 4

  7. File size : 1.17 GiB

  8. Duration : 1 h 18 min

  9. Overall bit rate : 2 129 kb/s

  10. Encoded date : UTC 2021-11-28 01:40:49

  11. Writing application : mkvmerge v56.1.0 ('My Friend') 64-bit

  12. Writing library : libebml v1.4.2 + libmatroska v1.6.4


  13. Video

  14. ID : 2

  15. Format : AVC

  16. Format/Info : Advanced Video Codec

  17. Format profile : [email protected]

  18. Format settings : CABAC / 4 Ref Frames

  19. Format settings, CABAC : Yes

  20. Format settings, Reference frames : 4 frames

  21. Codec ID : V_MPEG4/ISO/AVC

  22. Duration : 1 h 18 min

  23. Bit rate : 1 871 kb/s

  24. Width : 1 920 pixels

  25. Height : 810 pixels

  26. Display aspect ratio : 2.40:1

  27. Frame rate mode : Constant

  28. Frame rate : 24.000 FPS

  29. Color space : YUV

  30. Chroma subsampling : 4:2:0

  31. Bit depth : 8 bits

  32. Scan type : Progressive

  33. Bits/(Pixel*Frame) : 0.050

  34. Stream size : 1.03 GiB (88%)

  35. Writing library : ptw-1.0.136 rcm-adapt vs-93 vwk

  36. Default : Yes

  37. Forced : No

  38. Color range : Limited

  39. Color primaries : BT.709

  40. Transfer characteristics : BT.709

  41. Matrix coefficients : BT.709


  42. Audio

  43. ID : 1

  44. Format : E-AC-3

  45. Format/Info : Enhanced AC-3

  46. Commercial name : Dolby Digital Plus

  47. Codec ID : A_EAC3

  48. Duration : 1 h 18 min

  49. Bit rate mode : Constant

  50. Bit rate : 256 kb/s

  51. Channel(s) : 2 channels

  52. Channel layout : L R

  53. Sampling rate : 48.0 kHz

  54. Frame rate : 31.250 FPS (1536 SPF)

  55. Compression mode : Lossy

  56. Stream size : 144 MiB (12%)

  57. Service kind : Complete Main

  58. Default : Yes

  59. Forced : No




复制代码



文件下载


除非特别注明,本文『二捕出山[国语配音/中文字幕][email protected] 1.17GB』来源于互联网机器人自动抓取,非本站原创。 浮游电影网不对本文拥有版权,如有侵犯,请联系邮箱:fuyouu#yandex.com[#换成@]投诉。我们会在15个工作日内删除。 但烦请转载时请标明出处:“本文转载于『浮游电影网』,原文地址:https://www.fuyouu.com/19052.html

评论吧骚年!

发表你的见解   

昵称*

E-mail*(建议输入,以便收到博主回复的提示邮件)

验证码*

您可以使用eMule或eMule Mod(Windows)、aMule(Win、Linux、Mac)等软件下载eD2k链接。。
eMule收藏集(.emulecollection)文件是您选中的所有链接的列表文件。eMule可以直接下载它们。
按住SHIFT键选择可以选中多个选择框。
可用文件名和大小选择器来选择文件。
文件名选择器帮您根据文件名称或后缀来选择文件。不分大小写。
符号使用:
和:空格( )、+
不包含:-
或:|
转义:一对英文引号("");
匹配开头:^
匹配结尾:$
例如:
选中所有名称中包含有“eMule”或“0.49c”字眼,但不包含有“exe”字眼的:emule|0.49c -exe
选中所有名称的开头是“eMule”,结尾是“0.49c”的:^emule 0.49c$
选中所有名称中带有“eMule 0.49c”的(必须是“eMule 0.49c”,中间没有别的字符,不能是“eMule fake 0.49c”),需要转义:"emule 0.49c"
大小选择器帮您根据文件大小选择文件。