当前位置: 首页 >> 动画电影 >> 最终幻想:灵魂深处[国语配音/中文字幕].Final.Fantasy.The.Spirits.Within.2001.2160p.HDR.UHD.BluRay.TrueHD.7.1 >> 正文

最终幻想:灵魂深处[国语配音/中文字幕].Final.Fantasy.The.Spirits.Within.2001.2160p.HDR.UHD.BluRay.TrueHD.7.1

2021年11月29日 08:28:54     电影发布:来源于网络     电影分类:动画电影     评论(0)    

最终幻想:灵魂深处[国语配音/中文字幕].Final.Fantasy.The.Spirits.Within.2001.2160p.HDR.UHD.BluRay.TrueHD.7.1 动画片 科幻片 奇幻片 冒险片 惊悚片 动作片 动画电影  第1张

◎译 名 最终幻想:灵魂深处 / 太空战士之灭绝光年(港) / 公主蒙难记(台) / 终极幻想 / 太空战士

◎片 名 Final Fantasy: The Spirits Within

◎年 代 2001

◎产 地 美国 / 日本

◎类 别 动作 / 科幻 / 动画 / 惊悚 / 奇幻 / 冒险

◎语 言 英语

◎上映日期 2001-07-11

◎IMDb链接 https://www.imdb.com/title/tt0173840/

◎豆瓣评分 6.9/10 (13457人评价)

◎豆瓣链接 https://movie.douban.com/subject/1304602/

◎片 长 106 分钟

◎导 演 坂口博信 Hironobu Sakaguchi (id:1041883)

◎编 剧 坂口博信 Hironobu Sakaguchi (id:1041883)

Ramin Mebdy Ramin Mebdy (id:1217046)

阿尔·赖纳特 Al Reinert (id:1295418)

◎演 员 温明娜 Ming-Na Wen (id:1041128)

亚历克·鲍德温 Alec Baldwin (id:1000011)

文·瑞姆斯 Ving Rhames (id:1048129)

史蒂夫·布西密 Steve Buscemi (id:1054409)

佩里·吉普林 Peri Gilpin (id:1054602)

唐纳德·萨瑟兰 Donald Sutherland (id:1010556)

詹姆斯·伍兹 James Woods (id:1002689)

凯斯·大卫 Keith David (id:1019012)

简·西蒙斯 Jean Simmons (id:1007033)

吴辰君 Annie Wu (id:1023550)

史蒂夫·奥特曼 Steve Alterman (id:1023444)

大卫·米驰 David Michie (id:1291994)

马特·阿德勒 Matt Adler (id:1036624)

戴维阿诺特 David Arnott (id:1277450)

凯茜·卡瓦蒂妮 Cathy Cavadini (id:1071962)

约翰·德米塔 John DeMita (id:1081536)

Greg Finley Greg Finley (id:1082636)

维基·戴维斯 Vicki Davis (id:1089286)

约翰·迪·马吉欧 John Di Maggio (id:1049627)

阿莱克斯·费尔南德斯 Alex Fernandez (id:1084371)

德怀特·舒尔茨 Dwight Schultz (id:1139389)

Lanei Chapman Lanei Chapman (id:1074451)

坂口博信 Hironobu Sakaguchi (id:1041883)

艾略特·戈登塞尔 Elliot Goldenthal (id:1045307)

Mauro Borrelli Mauro Borrelli (id:1278995)

田师正子 Masahiko Tani (id:1308063)

Rick O'Connor Rick O'Connor (id:1197908)

Chris Paizis Chris Paizis (id:1135852)

Claude Precourt Claude Precourt (id:1133686)

Kory Juul Kory Juul (id:1109423)

James H. Dargie James H. Dargie (id:1086101)

Michael Rivero Michael Rivero (id:1139186)

Scot Brew (id:1236028)

罗杰·库帕里安 Roger Kupelian (id:1276667)

雷莫·巴尔塞尔斯 Remo Balcells (id:1277760)

David Seager David Seager (id:1306782)

Richard Mahon Richard Mahon (id:1306429)

John Monos John Monos (id:1302769)

Remington Scott Remington Scott (id:1302531)

詹姆斯·罗杰斯 James Rogers (id:1295920)

Michael Fu Michael Fu (id:1284282)

蒂姆·克罗斯比 Tim Crosbie (id:1281511)

史蒂夫·普雷格 Steve Preeg (id:1308739)

Benjamin Cheung Benjamin Cheung (id:1078427)

Bruce Jurgens Bruce Jurgens (id:1012898)

Pedram Goshtasbpour Pedram Goshtasbpour (id:1026012)

Lisa Atkinson Lisa Atkinson (id:1004007)

Peter Baustaedter Peter Baustaedter (id:1065508)

Laurent Ben-Mimoun Laurent Ben-Mimoun (id:1301846)

◎标 签 动画 / 科幻 / 日本 / 最终幻想 / CG / 美国 / 2001 / FinalFantasy

◎简 介

本片是以电视游戏《最终幻想》作为基础的原创CG动画电影。

本片于2001年上映,在电影靠电脑绘画的道路上树立了一个新的里程碑。

公元2065年,地球上充满了毁灭和混乱,城市荒芜,人口被大批残杀,整个世界造到外星生命的重创,他们通过独特的方式侵袭地球上的一切生命,少数生存下来的地球人开始反抗这些外星敌人。被毁灭的梦魇时刻缠绕着的天才女科学家罗丝是这场战争中拯救世界的关键人物,但她的计划要冒极大的危险,另一边掌握着高科技军队大权的将军也有一套自己的计划去打击外星敌人,但这个计划同样要对大自然造成更大的伤害,除非罗丝能成功……

  1. ##### MediaInfo ######

  2. General

  3. Unique ID : 86444254785701194266443348119653174161 (0x41088ED14D6E4ED5FAE061FB77EBCB91)

  4. Complete name : Final.Fantasy.The.Spirits.Within.200[email protected]MKVChina.mkv

  5. Format : Matroska

  6. Format version : Version 4

  7. File size : 14.2 GiB

  8. Duration : 1 h 45 min

  9. Overall bit rate mode : Variable

  10. Overall bit rate : 19.1 Mb/s

  11. Movie name : Final Fantasy The Spirits Within 2001 2160p HDR UHD BluRay TrueHD 7.1 Atmos 2Audio [email protected]

  12. Encoded date : UTC 2021-11-27 23:07:24

  13. Writing application : mkvmerge v38.0.0 ('The Silent Type') 64-bit

  14. Writing library : libebml v1.3.9 + libmatroska v1.5.2


  15. Video

  16. ID : 1

  17. Format : HEVC

  18. Format/Info : High Efficiency Video Coding

  19. Format profile : Main [email protected]@High

  20. HDR format : SMPTE ST 2086, HDR10 compatible

  21. Codec ID : V_MPEGH/ISO/HEVC

  22. Duration : 1 h 45 min

  23. Bit rate : 12.6 Mb/s

  24. Width : 3 840 pixels

  25. Height : 2 072 pixels

  26. Display aspect ratio : 1.85:1

  27. Frame rate mode : Constant

  28. Frame rate : 23.976 (24000/1001/53354) FPS

  29. Color space : YUV

  30. Chroma subsampling : 4:2:0

  31. Bit depth : 10 bits

  32. Bits/(Pixel*Frame) : 0.066

  33. Stream size : 9.34 GiB (66%)

  34. Title : @HDSky

  35. Writing library : x265 - H.265/HEVC codec

  36. Default : Yes

  37. Forced : No

  38. Color range : Limited

  39. Color primaries : BT.2020

  40. Transfer characteristics : PQ

  41. Matrix coefficients : BT.2020 non-constant

  42. Mastering display color primaries : BT.2020

  43. Mastering display luminance : min: 0.0010 cd/m2, max: 1000 cd/m2

  44. Maximum Content Light Level : 1245 cd/m2

  45. Maximum Frame-Average Light Level : 601 cd/m2


  46. Audio #1

  47. ID : 2

  48. Format : MLP FBA 16-ch

  49. Format/Info : Meridian Lossless Packing FBA with 16-channel presentation

  50. Commercial name : Dolby TrueHD with Dolby Atmos

  51. Codec ID : A_TRUEHD

  52. Duration : 1 h 45 min

  53. Bit rate mode : Variable

  54. Bit rate : 4 847 kb/s

  55. Maximum bit rate : 7 965 kb/s

  56. Channel(s) : 8 channels

  57. Channel layout : L R C LFE Ls Rs Lb Rb

  58. Sampling rate : 48.0 kHz

  59. Frame rate : 1 200.000 FPS (40 SPF)

  60. Compression mode : Lossless

  61. Stream size : 3.59 GiB (25%)

  62. Title : English

  63. Language : English

  64. Default : Yes

  65. Forced : No

  66. Number of dynamic objects : 11

  67. Bed channel count : 1 channel

  68. Bed channel configuration : LFE


  69. Audio #2

  70. ID : 3

  71. Format : DTS

  72. Format/Info : Digital Theater Systems

  73. Codec ID : A_DTS

  74. Duration : 1 h 45 min

  75. Bit rate mode : Constant

  76. Bit rate : 1 509 kb/s

  77. Channel(s) : 6 channels

  78. Channel layout : C L R Ls Rs LFE

  79. Sampling rate : 48.0 kHz

  80. Frame rate : 93.750 FPS (512 SPF)

  81. Bit depth : 24 bits

  82. Compression mode : Lossy

  83. Stream size : 1.12 GiB (8%)

  84. Title : Mandarin

  85. Language : Chinese

  86. Default : No

  87. Forced : No


  88. Text #1

  89. ID : 4

  90. Format : PGS

  91. Muxing mode : zlib

  92. Codec ID : S_HDMV/PGS

  93. Codec ID/Info : Picture based subtitle format used on BDs/HD-DVDs

  94. Duration : 1 h 45 min

  95. Bit rate : 30.3 kb/s

  96. Count of elements : 2312

  97. Stream size : 22.8 MiB (0%)

  98. Title : ENG

  99. Language : English

  100. Default : Yes

  101. Forced : No


  102. Text #2

  103. ID : 5

  104. Format : PGS

  105. Muxing mode : zlib

  106. Codec ID : S_HDMV/PGS

  107. Codec ID/Info : Picture based subtitle format used on BDs/HD-DVDs

  108. Duration : 1 h 43 min

  109. Bit rate : 19.8 kb/s

  110. Count of elements : 1706

  111. Stream size : 14.7 MiB (0%)

  112. Title : CHS

  113. Language : Chinese

  114. Default : No

  115. Forced : No


  116. Text #3

  117. ID : 6

  118. Format : PGS

  119. Muxing mode : zlib

  120. Codec ID : S_HDMV/PGS

  121. Codec ID/Info : Picture based subtitle format used on BDs/HD-DVDs

  122. Duration : 1 h 43 min

  123. Bit rate : 18.6 kb/s

  124. Count of elements : 1710

  125. Stream size : 13.8 MiB (0%)

  126. Title : CHT

  127. Language : Chinese

  128. Default : No

  129. Forced : No


  130. Text #4

  131. ID : 7

  132. Format : PGS

  133. Muxing mode : zlib

  134. Codec ID : S_HDMV/PGS

  135. Codec ID/Info : Picture based subtitle format used on BDs/HD-DVDs

  136. Duration : 1 h 44 min

  137. Bit rate : 26.9 kb/s

  138. Count of elements : 1764

  139. Stream size : 20.1 MiB (0%)

  140. Title : CHS

  141. Language : Chinese

  142. Default : No

  143. Forced : No


  144. Text #5

  145. ID : 8

  146. Format : PGS

  147. Muxing mode : zlib

  148. Codec ID : S_HDMV/PGS

  149. Codec ID/Info : Picture based subtitle format used on BDs/HD-DVDs

  150. Duration : 1 h 44 min

  151. Bit rate : 27.7 kb/s

  152. Count of elements : 1764

  153. Stream size : 20.7 MiB (0%)

  154. Title : CHT

  155. Language : Chinese

  156. Default : No

  157. Forced : No


  158. Text #6

  159. ID : 9

  160. Format : PGS

  161. Muxing mode : zlib

  162. Codec ID : S_HDMV/PGS

  163. Codec ID/Info : Picture based subtitle format used on BDs/HD-DVDs

  164. Duration : 1 h 44 min

  165. Bit rate : 33.3 kb/s

  166. Count of elements : 1764

  167. Stream size : 24.9 MiB (0%)

  168. Title : CHS&ENG

  169. Language : Chinese

  170. Default : No

  171. Forced : No


  172. Text #7

  173. ID : 10

  174. Format : PGS

  175. Muxing mode : zlib

  176. Codec ID : S_HDMV/PGS

  177. Codec ID/Info : Picture based subtitle format used on BDs/HD-DVDs

  178. Duration : 1 h 44 min

  179. Bit rate : 34.1 kb/s

  180. Count of elements : 1764

  181. Stream size : 25.5 MiB (0%)

  182. Title : CHT&ENG

  183. Language : Chinese

  184. Default : No

  185. Forced : No


  186. Menu

  187. 00:00:00.000 : en:Chapter 01

  188. 00:07:01.421 : en:Chapter 02

  189. 00:11:05.331 : en:Chapter 03

  190. 00:17:28.381 : en:Chapter 04

  191. 00:25:38.036 : en:Chapter 05

  192. 00:30:51.433 : en:Chapter 06

  193. 00:35:21.036 : en:Chapter 07

  194. 00:42:32.258 : en:Chapter 08

  195. 00:48:15.976 : en:Chapter 09

  196. 00:54:34.438 : en:Chapter 10

  197. 00:59:28.857 : en:Chapter 11

  198. 01:09:53.022 : en:Chapter 12

  199. 01:13:36.329 : en:Chapter 13

  200. 01:17:30.229 : en:Chapter 14

  201. 01:24:05.958 : en:Chapter 15

  202. 01:32:18.408 : en:Chapter 16




复制代码



文件下载


除非特别注明,本文『最终幻想:灵魂深处[国语配音/中文字幕].Final.Fantasy.The.Spirits.Within.2001.2160p.HDR.UHD.BluRay.TrueHD.7.1』来源于互联网机器人自动抓取,非本站原创。 浮游电影网不对本文拥有版权,如有侵犯,请联系邮箱:fuyouu#yandex.com[#换成@]投诉。我们会在15个工作日内删除。 但烦请转载时请标明出处:“本文转载于『浮游电影网』,原文地址:https://www.fuyouu.com/19049.html

评论吧骚年!

发表你的见解   

昵称*

E-mail*(建议输入,以便收到博主回复的提示邮件)

验证码*

您可以使用eMule或eMule Mod(Windows)、aMule(Win、Linux、Mac)等软件下载eD2k链接。。
eMule收藏集(.emulecollection)文件是您选中的所有链接的列表文件。eMule可以直接下载它们。
按住SHIFT键选择可以选中多个选择框。
可用文件名和大小选择器来选择文件。
文件名选择器帮您根据文件名称或后缀来选择文件。不分大小写。
符号使用:
和:空格( )、+
不包含:-
或:|
转义:一对英文引号("");
匹配开头:^
匹配结尾:$
例如:
选中所有名称中包含有“eMule”或“0.49c”字眼,但不包含有“exe”字眼的:emule|0.49c -exe
选中所有名称的开头是“eMule”,结尾是“0.49c”的:^emule 0.49c$
选中所有名称中带有“eMule 0.49c”的(必须是“eMule 0.49c”,中间没有别的字符,不能是“eMule fake 0.49c”),需要转义:"emule 0.49c"
大小选择器帮您根据文件大小选择文件。