当前位置: 首页 >> 国产电影 >> 保安日记[国语配音/中文字幕].Diary.Of.Security.2021.2160p.WEB-DL.H265.DDP2.0-btbt9527.COM 1.77GB >> 正文

保安日记[国语配音/中文字幕].Diary.Of.Security.2021.2160p.WEB-DL.H265.DDP2.0-btbt9527.COM 1.77GB

2021年11月28日 11:19:08     电影发布:来源于网络     电影分类:国产电影     评论(0)    

p2735573268.jpg

导演: 徐赫屾

编剧: 谭超

主演: 宋晓峰 / 唐鉴军 / 李奎 / 刘世传 / 庞奕欣 / 更多...

类型: 喜剧 / 悬疑

制片国家/地区: 中国大陆

语言: 汉语普通话

上映日期: 2021-11-19(中国大陆)

片长: 71分钟

又名: Diary Of Security

资源名称: 保安日记.Diary.Of.Security.2021保安日记的剧情简介 · · · · · · 保安林霄峰和他的两兄弟因为太爱管闲事被千山景区保安队开除,沮丧之际他们接受到了一项特殊的任务,保护珍宝馆一个价值连城的古董花瓶,没料想在一场反窃演习中招来了真贼,花瓶被盗,三人为了找回花瓶脑洞大开,啼笑皆非,他们想出了一个“引蛇出洞”的方法——用更为贵重的镇店之宝引诱盗贼,结果镇店之宝也离奇丢失,在寻找盗贼追回宝物的过程中,珍宝馆馆长的女儿被绑,林霄峰因为愧疚孤身犯险,与盗贼展开了殊死搏斗!然而,这一切的幕后真相却令人始料未及……

  1. ##### MediaInfo ######

  2. General

  3. Unique ID : 336268930113423276154663284720479975348 (0xFCFB0A49B62CB83390034F530ACF37B4)

  4. Complete name : 保安日记[email protected]M.mkv

  5. Format : Matroska

  6. Format version : Version 4

  7. File size : 1.77 GiB

  8. Duration : 1 h 11 min

  9. Overall bit rate : 3 551 kb/s

  10. Encoded date : UTC 2021-11-19 02:37:57

  11. Writing application : mkvmerge v61.0.0 ('So') 64-bit

  12. Writing library : libebml v1.4.2 + libmatroska v1.6.4


  13. Video

  14. ID : 1

  15. Format : HEVC

  16. Format/Info : High Efficiency Video Coding

  17. Format profile : [email protected]@Main

  18. Codec ID : V_MPEGH/ISO/HEVC

  19. Duration : 1 h 11 min

  20. Bit rate : 3 167 kb/s

  21. Width : 3 840 pixels

  22. Height : 1 636 pixels

  23. Display aspect ratio : 2.35:1

  24. Frame rate mode : Constant

  25. Frame rate : 25.000 FPS

  26. Color space : YUV

  27. Chroma subsampling : 4:2:0

  28. Bit depth : 8 bits

  29. Bits/(Pixel*Frame) : 0.020

  30. Stream size : 1.58 GiB (89%)

  31. Default : Yes

  32. Forced : No

  33. Color range : Limited

  34. Color primaries : BT.709

  35. Transfer characteristics : BT.709

  36. Matrix coefficients : BT.709


  37. Audio #1

  38. ID : 2

  39. Format : E-AC-3

  40. Format/Info : Enhanced AC-3

  41. Commercial name : Dolby Digital Plus

  42. Codec ID : A_EAC3

  43. Duration : 1 h 11 min

  44. Bit rate mode : Constant

  45. Bit rate : 256 kb/s

  46. Channel(s) : 2 channels

  47. Channel layout : L R

  48. Sampling rate : 48.0 kHz

  49. Frame rate : 31.250 FPS (1536 SPF)

  50. Compression mode : Lossy

  51. Delay relative to video : -42 ms

  52. Stream size : 131 MiB (7%)

  53. Language : Chinese

  54. Service kind : Complete Main

  55. Default : Yes

  56. Forced : No


  57. Audio #2

  58. ID : 3

  59. Format : AAC LC

  60. Format/Info : Advanced Audio Codec Low Complexity

  61. Codec ID : A_AAC-2

  62. Duration : 1 h 11 min

  63. Bit rate : 125 kb/s

  64. Channel(s) : 2 channels

  65. Channel layout : L R

  66. Sampling rate : 48.0 kHz

  67. Frame rate : 46.875 FPS (1024 SPF)

  68. Compression mode : Lossy

  69. Delay relative to video : -42 ms

  70. Stream size : 63.9 MiB (4%)

  71. Language : Chinese

  72. Default : Yes

  73. Forced : No




复制代码



文件下载
资源名称:保安日记[国语配音/


除非特别注明,本文『保安日记[国语配音/中文字幕].Diary.Of.Security.2021.2160p.WEB-DL.H265.DDP2.0-btbt9527.COM 1.77GB』来源于互联网机器人自动抓取,非本站原创。 浮游电影网不对本文拥有版权,如有侵犯,请联系邮箱:fuyouu#yandex.com[#换成@]投诉。我们会在15个工作日内删除。 但烦请转载时请标明出处:“本文转载于『浮游电影网』,原文地址:https://www.fuyouu.com/19048.html

评论吧骚年!

发表你的见解   

昵称*

E-mail*(建议输入,以便收到博主回复的提示邮件)

验证码*

您可以使用eMule或eMule Mod(Windows)、aMule(Win、Linux、Mac)等软件下载eD2k链接。。
eMule收藏集(.emulecollection)文件是您选中的所有链接的列表文件。eMule可以直接下载它们。
按住SHIFT键选择可以选中多个选择框。
可用文件名和大小选择器来选择文件。
文件名选择器帮您根据文件名称或后缀来选择文件。不分大小写。
符号使用:
和:空格( )、+
不包含:-
或:|
转义:一对英文引号("");
匹配开头:^
匹配结尾:$
例如:
选中所有名称中包含有“eMule”或“0.49c”字眼,但不包含有“exe”字眼的:emule|0.49c -exe
选中所有名称的开头是“eMule”,结尾是“0.49c”的:^emule 0.49c$
选中所有名称中带有“eMule 0.49c”的(必须是“eMule 0.49c”,中间没有别的字符,不能是“eMule fake 0.49c”),需要转义:"emule 0.49c"
大小选择器帮您根据文件大小选择文件。