当前位置: 首页 >> 日韩电影 >> 斗士[中文字幕].Fighter.2021.1080p.WEB-DL.AAC2.0.H.264-btbt9527.COM 5.90GB >> 正文

斗士[中文字幕].Fighter.2021.1080p.WEB-DL.AAC2.0.H.264-btbt9527.COM 5.90GB

2021年11月27日 23:47:28     电影发布:来源于网络     电影分类:日韩电影     评论(0)    

斗士[中文字幕].Fighter.2021.1080p.WEB DL.AAC2.0.H.264 btbt9527.COM 5.90GB 剧情片 日韩电影  第1张

◎译 名 斗士 / Fighter

◎片 名 ???

◎年 代 2020

◎产 地 韩国

◎类 别 剧情

◎语 言 韩语

◎上映日期 2020-10-27(釜山电影节) / 2021-03-18(韩国)

◎IMDb链接 https://www.imdb.com/title/tt13988990/

◎豆瓣链接 https://movie.douban.com/subject/35205109/

◎片 长 103分钟

◎导 演 尹载皓 Jero Yun (id:1357541)

◎编 剧 尹载皓 Jero Yun (id:1357541)

◎演 员 吴光禄 Kwang-rok Oh (id:1203325)

林成敏 Seong-min Lim (id:1013544)

白瑞彬 Baek Seo-Bin (id:1335613)

林圣美 Seong-mi Lim (id:1454040)

朴书允 Seo-yoon Park (id:1454424)

◎标 签 韩国 / 2020 / 柏林 / P-BerlinF新生代单元 / 韓國電影 / 励志 / M韩国 / 韩国电影

◎简 介

After a few months of social adjustment training, the North Korean refugee Jina moves to a small studio in Seoul and starts her new life. To bring her father to South Korea, she needs money but no matter how hard she works, the discrimination doesn't let her save enough money. One day the broker introduces her to a boxing gym cleaning job. Seeing young and confident female boxe...

◎获奖情况 (共1项)

第71届柏林国际电影节 (2021)

新生代青年单元 最佳影片(提名)

└──尹载皓 (id:1357541)

  1. ##### MediaInfo ######

  2. General

  3. Unique ID : 253387590755034276497518839813966862883 (0xBEA0ACC36FC525235ACBE628EE771A23)

  4. Complete name : [email protected]

  5. Format : Matroska

  6. Format version : Version 4

  7. File size : 5.90 GiB

  8. Duration : 1 h 43 min

  9. Overall bit rate : 8 129 kb/s

  10. Encoded date : UTC 2021-11-26 14:59:25

  11. Writing application : mkvmerge v56.1.0 ('My Friend') 64-bit

  12. Writing library : libebml v1.4.2 + libmatroska v1.6.4


  13. Video

  14. ID : 1

  15. Format : AVC

  16. Format/Info : Advanced Video Codec

  17. Format profile : [email protected]

  18. Format settings : CABAC / 2 Ref Frames

  19. Format settings, CABAC : Yes

  20. Format settings, Reference frames : 2 frames

  21. Format settings, GOP : M=1, N=30

  22. Codec ID : V_MPEG4/ISO/AVC

  23. Duration : 1 h 43 min

  24. Bit rate mode : Constant

  25. Bit rate : 8 000 kb/s

  26. Width : 1 920 pixels

  27. Height : 1 080 pixels

  28. Display aspect ratio : 16:9

  29. Frame rate mode : Constant

  30. Frame rate : 24.000 FPS

  31. Color space : YUV

  32. Chroma subsampling : 4:2:0

  33. Bit depth : 8 bits

  34. Scan type : Progressive

  35. Bits/(Pixel*Frame) : 0.161

  36. Stream size : 5.81 GiB (98%)

  37. Default : Yes

  38. Forced : No


  39. Audio

  40. ID : 2

  41. Format : AAC LC

  42. Format/Info : Advanced Audio Codec Low Complexity

  43. Codec ID : A_AAC-2

  44. Duration : 1 h 43 min

  45. Bit rate : 128 kb/s

  46. Channel(s) : 2 channels

  47. Channel layout : L R

  48. Sampling rate : 48.0 kHz

  49. Frame rate : 46.875 FPS (1024 SPF)

  50. Compression mode : Lossy

  51. Stream size : 95.2 MiB (2%)

  52. Language : Korean

  53. Default : Yes

  54. Forced : No


  55. Text #1

  56. ID : 3

  57. Format : UTF-8

  58. Codec ID : S_TEXT/UTF8

  59. Codec ID/Info : UTF-8 Plain Text

  60. Duration : 1 h 38 min

  61. Bit rate : 14 b/s

  62. Count of elements : 520

  63. Stream size : 10.5 KiB (0%)

  64. Title : Chinese Simplified

  65. Language : Chinese

  66. Default : Yes

  67. Forced : No


  68. Text #2

  69. ID : 4

  70. Format : UTF-8

  71. Codec ID : S_TEXT/UTF8

  72. Codec ID/Info : UTF-8 Plain Text

  73. Duration : 1 h 38 min

  74. Bit rate : 14 b/s

  75. Count of elements : 520

  76. Stream size : 10.5 KiB (0%)

  77. Title : Chinese Traditional

  78. Language : Chinese

  79. Default : No

  80. Forced : No




复制代码



文件下载


除非特别注明,本文『斗士[中文字幕].Fighter.2021.1080p.WEB-DL.AAC2.0.H.264-btbt9527.COM 5.90GB』来源于互联网机器人自动抓取,非本站原创。 浮游电影网不对本文拥有版权,如有侵犯,请联系邮箱:fuyouu#yandex.com[#换成@]投诉。我们会在15个工作日内删除。 但烦请转载时请标明出处:“本文转载于『浮游电影网』,原文地址:https://www.fuyouu.com/19045.html

评论吧骚年!

发表你的见解   

昵称*

E-mail*(建议输入,以便收到博主回复的提示邮件)

验证码*

您可以使用eMule或eMule Mod(Windows)、aMule(Win、Linux、Mac)等软件下载eD2k链接。。
eMule收藏集(.emulecollection)文件是您选中的所有链接的列表文件。eMule可以直接下载它们。
按住SHIFT键选择可以选中多个选择框。
可用文件名和大小选择器来选择文件。
文件名选择器帮您根据文件名称或后缀来选择文件。不分大小写。
符号使用:
和:空格( )、+
不包含:-
或:|
转义:一对英文引号("");
匹配开头:^
匹配结尾:$
例如:
选中所有名称中包含有“eMule”或“0.49c”字眼,但不包含有“exe”字眼的:emule|0.49c -exe
选中所有名称的开头是“eMule”,结尾是“0.49c”的:^emule 0.49c$
选中所有名称中带有“eMule 0.49c”的(必须是“eMule 0.49c”,中间没有别的字符,不能是“eMule fake 0.49c”),需要转义:"emule 0.49c"
大小选择器帮您根据文件大小选择文件。