当前位置: 首页 >> 港台电影 >> 八道楼子[国语音轨/中文字幕].7.Man.Army.1976.BluRay.1080p.x265.10bit.DDP5.1.MNHD-btbt9527.COM 5.41GB >> 正文

八道楼子[国语音轨/中文字幕].7.Man.Army.1976.BluRay.1080p.x265.10bit.DDP5.1.MNHD-btbt9527.COM 5.41GB

2021年11月27日 23:43:11     电影发布:来源于网络     电影分类:港台电影     评论(0)    

八道楼子[国语音轨/中文字幕].7.Man.Army.1976.BluRay.1080p.x265.10bit.DDP5.1.MNHD btbt9527.COM 5.41GB 战争片 动作片 剧情片 港台电影  第1张

◎译 名 八道楼子 / 7 Man Army / Seven Man Army

◎片 名 八道樓子

◎年 代 1976

◎产 地 中国香港

◎类 别 剧情 / 动作 / 战争

◎语 言 汉语普通话

◎上映日期 1976-04-16(中国香港)

◎IMDb链接 https://www.imdb.com/title/tt0074170/

◎豆瓣评分 6.6/10 (847人评价)

◎豆瓣链接 https://movie.douban.com/subject/1302821/

◎片 长 113分钟

◎导 演 张彻 Cheh Chang (id:1007232)

◎编 剧 倪匡 Kuang Ni (id:1275879)

◎演 员 姜大卫 David Chiang (id:1013705)

狄龙 Lung Ti (id:1025426)

陈观泰 Kuan Tai Chen (id:1028360)

戚冠军 Kuan-Chun Chi (id:1326305)

傅声 Sheng Fu (id:1028495)

梁家仁 Ka-Yan Leung (id:1008125)

龙逸升 Tang Tak-Cheung (id:1432102)

孙树培 Shu-Pei Sun (id:1320478)

王力 Wong Lik (id:1348713)

陈明利 Ming Li Chen (id:1342436)

程天赐 Chien-Chang Chen (id:1332292)

林志泰 Chi Tai Lam (id:1433961)

刘家辉 Chia Hui Liu (id:1121285)

余太平 Tai-ping Yu (id:1361087)

何刚 Kang Ho (id:1360441)

杨奎玉 Yeung Fui-Yuk (id:1354908)

丁华宠 Hua Chung Ting (id:1340537)

陈慧楼 Hui Lou Chen (id:1315548)

王龙威 Lung Wei Wang (id:1012747)

郭追 Philip Kwok (id:1028425)

鹿峰 Feng Lu (id:1045851)

李艺民 Yi-min Li (id:1114995)

苗天 Tien Miao (id:1115076)

Ching Ping Wang Ching Ping Wang (id:1193194)

白鹰 Ying Bai (id:1275120)

彭世伟 Shih-Wei Peng (id:1402368)

◎标 签 张彻 / 邵氏 / 姜大卫 / 香港 / 狄龙 / 香港电影 / 战争 / 陈观泰

◎简 介

动作电影天王张彻又一破格之作,以澎湃的爱国情怀重现“八道楼子”抗日英雄的传奇事迹。本片荣获第十三届金马奖优等剧情片奖。1933年,日军出动兵团两万,战车五十余辆,进攻“八道楼子”的据点。我军以寡敌众,死守“八道楼子”抵御日军进攻,血战五日五夜,终于失守。日军发现楼内,只有七具血肉模糊的尸体,为之肃然起敬,立碑“支那七勇士”之墓。张彻以张家班底成员:狄龙、姜大卫、傅声、陈观泰演绎这群无名英雄的动人事迹。他以功夫动作,融入大型战争中,炮火与肌肉结合得完美无暇。“八道楼子”内,无名英魂的惊人意志,张彻用泣鬼神的影像向他们致敬。

◎获奖情况 (共1项)

第13届台北金马影展 (1976)

金马奖 最佳剧情片(提名)

  1. ##### MediaInfo ######

  2. General

  3. Unique ID : 220703626319861367890096609223153840637 (0xA609F8E71BA1728541ED04F3CA2471FD)

  4. Complete name : [email protected].COM.mkv

  5. Format : Matroska

  6. Format version : Version 4

  7. File size : 5.41 GiB

  8. Duration : 1 h 58 min

  9. Overall bit rate : 6 534 kb/s

  10. Encoded date : UTC 2021-11-27 11:52:11

  11. Writing application : mkvmerge v63.0.0 ('Everything') 64-bit

  12. Writing library : libebml v1.4.2 + libmatroska v1.6.4


  13. Video

  14. ID : 1

  15. Format : HEVC

  16. Format/Info : High Efficiency Video Coding

  17. Format profile : Main [email protected]@Main

  18. Codec ID : V_MPEGH/ISO/HEVC

  19. Duration : 1 h 58 min

  20. Bit rate : 5 745 kb/s

  21. Width : 1 916 pixels

  22. Height : 812 pixels

  23. Display aspect ratio : 2.35:1

  24. Frame rate mode : Constant

  25. Frame rate : 24.000 FPS

  26. Color space : YUV

  27. Chroma subsampling : 4:2:0

  28. Bit depth : 10 bits

  29. Bits/(Pixel*Frame) : 0.154

  30. Stream size : 4.76 GiB (88%)

  31. Writing library : x265 3.1_RC1+2-g4e61d5f05+23:[Windows][GCC 8.3.0][64 bit] Yuuki 10bit

  32. Encoding settings : rc=crf / crf=18.0000 / qcomp=0.70 / qpstep=4 / stats-write=0 / stats-read=0 / no-lossless / no-cu-lossless / aq-mode=1 / aq-strength=0.80 / cbqpoffs=-2 / crqpoffs=-2 / ipratio=1.40 / pbratio=1.30 / psy-rd=0.00 / psy-rdoq=5.00 / deblock=-1:-1 / ref=5 / limit-refs=2 / limit-modes / bframes=9 / b-adapt=2 / bframe-bias=0 / b-pyramid / b-intra / weightp / weightb / min-keyint=1 / max-keyint=360 / rc-lookahead=60 / gop-lookahead=0 / NTMzNTQ=uuDQuD2mJt9fsCf / scenecut=40 / radl=0 / max-cu-size=32 / min-cu-size=8 / me=3 / subme=5 / merange=25 / rdoq-level=1 / rd=4 / rdpenalty=1 / dynamic-rd=0.00 / no-rd-refine / ----- / cutree / no-sao / rect / no-amp / no-open-gop / wpp / no-pmode / no-pme / no-psnr / no-ssim / nr-intra=0 / nr-inter=0 / no-constrained-intra / no-strong-intra-smoothing / max-tu-size=16 / tu-inter-depth=2 / tu-intra-depth=2 / limit-tu=4 / qg-size=16 / qpmax=69 / qpmin=0 / ----- / cpuid=533541111039 / frame-threads=4 / numa-pools=16 / log-level=2 / csv / csv-log-level=0 / input-csp=1 / input-res=1916x812 / interlace=0 / level-idc=0 / high-tier=1 / uhd-bd=0 / no-allow-non-conformance / no-repeat-headers / no-aud / no-hrd / info / hash=0 / no-temporal-layers / lookahead-slices=0 / no-splice / no-intra-refresh / ssim-rd / signhide / no-tskip / max-merge=4 / temporal-mvp / no-analyze-src-pics / no-sao-non-deblock / early-skip / rskip / no-fast-intra / no-tskip-fast / no-splitrd-skip / zone-count=0 / no-strict-cbr / no-rc-grain / no-const-vbv / sar=0 / overscan=0 / videoformat=5 / range=0 / colorprim=1 / transfer=2 / colormatrix=2 / chromaloc=0 / display-window=0cll=0,0 / min-luma=0 / max-luma=1023 / log2-max-poc-lsb=8 / vui-timing-info / vui-hrd-info / slices=1 / no-opt-qp-pps / no-opt-ref-list-length-pps / no-multi-pass-opt-rps / scenecut-bias=0.05 / no-opt-cu-delta-qp / no-aq-motion / no-hdr / no-hdr-opt / no-dhdr10-opt / no-idr-recovery-sei / analysis-reuse-level=5 / scale-factor=0 / refine-intra=0 / refine-inter=0 / refine-mv=0 / refine-ctu-distortion=0 / no-limit-sao / ctu-info=0 / no-lowpass-dct / refine-analysis-type=0 / copy-pic=1 / max-ausize-factor=1.0 / no-dynamic-refine / no-single-sei / no-hevc-aq / no-svt / no-field / qp-adaptation-range=1.00

  33. Language : Chinese

  34. Default : Yes

  35. Forced : No

  36. Color range : Limited

  37. Color primaries : BT.709


  38. Audio

  39. ID : 2

  40. Format : E-AC-3

  41. Format/Info : Enhanced AC-3

  42. Commercial name : Dolby Digital Plus

  43. Codec ID : A_EAC3

  44. Duration : 1 h 58 min

  45. Bit rate mode : Constant

  46. Bit rate : 768 kb/s

  47. Channel(s) : 6 channels

  48. Channel layout : L R C LFE Ls Rs

  49. Sampling rate : 48.0 kHz

  50. Frame rate : 62.500 FPS (768 SPF)

  51. Compression mode : Lossy

  52. Stream size : 651 MiB (12%)

  53. Language : Chinese

  54. Service kind : Complete Main

  55. Default : Yes

  56. Forced : No


  57. Text #1

  58. ID : 3

  59. Format : PGS

  60. Muxing mode : zlib

  61. Codec ID : S_HDMV/PGS

  62. Codec ID/Info : Picture based subtitle format used on BDs/HD-DVDs

  63. Duration : 1 h 57 min

  64. Bit rate : 10.8 kb/s

  65. Count of elements : 1198

  66. Stream size : 9.00 MiB (0%)

  67. Title : CHT

  68. Language : Chinese

  69. Default : No

  70. Forced : No


  71. Text #2

  72. ID : 4

  73. Format : PGS

  74. Muxing mode : zlib

  75. Codec ID : S_HDMV/PGS

  76. Codec ID/Info : Picture based subtitle format used on BDs/HD-DVDs

  77. Duration : 1 h 57 min

  78. Bit rate : 10.5 kb/s

  79. Count of elements : 1198

  80. Stream size : 8.78 MiB (0%)

  81. Title : CHS

  82. Language : Chinese

  83. Default : No

  84. Forced : No


  85. Text #3

  86. ID : 5

  87. Format : PGS

  88. Muxing mode : zlib

  89. Codec ID : S_HDMV/PGS

  90. Codec ID/Info : Picture based subtitle format used on BDs/HD-DVDs

  91. Duration : 1 h 57 min

  92. Bit rate : 13.1 kb/s

  93. Count of elements : 1218

  94. Stream size : 11.0 MiB (0%)

  95. Language : English

  96. Default : No

  97. Forced : No


  98. Menu

  99. 00:00:00.000 : en:Chapter 1

  100. 00:09:28.081 : en:Chapter 2

  101. 00:18:06.414 : en:Chapter 3

  102. 00:28:07.250 : en:Chapter 4

  103. 00:38:09.916 : en:Chapter 5

  104. 00:48:11.083 : en:Chapter 6

  105. 00:58:03.250 : en:Chapter 7

  106. 01:06:54.416 : en:Chapter 8

  107. 01:18:07.082 : en:Chapter 9

  108. 01:29:06.791 : en:Chapter 10

  109. 01:41:17.791 : en:Chapter 11

  110. 01:48:05.082 : en:Chapter 12




复制代码




文件下载


除非特别注明,本文『八道楼子[国语音轨/中文字幕].7.Man.Army.1976.BluRay.1080p.x265.10bit.DDP5.1.MNHD-btbt9527.COM 5.41GB』来源于互联网机器人自动抓取,非本站原创。 浮游电影网不对本文拥有版权,如有侵犯,请联系邮箱:fuyouu#yandex.com[#换成@]投诉。我们会在15个工作日内删除。 但烦请转载时请标明出处:“本文转载于『浮游电影网』,原文地址:https://www.fuyouu.com/19042.html

评论吧骚年!

发表你的见解   

昵称*

E-mail*(建议输入,以便收到博主回复的提示邮件)

验证码*

您可以使用eMule或eMule Mod(Windows)、aMule(Win、Linux、Mac)等软件下载eD2k链接。。
eMule收藏集(.emulecollection)文件是您选中的所有链接的列表文件。eMule可以直接下载它们。
按住SHIFT键选择可以选中多个选择框。
可用文件名和大小选择器来选择文件。
文件名选择器帮您根据文件名称或后缀来选择文件。不分大小写。
符号使用:
和:空格( )、+
不包含:-
或:|
转义:一对英文引号("");
匹配开头:^
匹配结尾:$
例如:
选中所有名称中包含有“eMule”或“0.49c”字眼,但不包含有“exe”字眼的:emule|0.49c -exe
选中所有名称的开头是“eMule”,结尾是“0.49c”的:^emule 0.49c$
选中所有名称中带有“eMule 0.49c”的(必须是“eMule 0.49c”,中间没有别的字符,不能是“eMule fake 0.49c”),需要转义:"emule 0.49c"
大小选择器帮您根据文件大小选择文件。